<?xml version="1.0" standalone="no"?>
<!DOCTYPE svg PUBLIC "-//W3C//DTD SVG 1.1//EN" "http://www.w3.org/Graphics/SVG/1.1/DTD/svg11.dtd" >
<svg xmlns="http://www.w3.org/2000/svg" xmlns:xlink="http://www.w3.org/1999/xlink" version="1.1">
<metadata>
Created by FontForge 20190801 at Fri May 21 10:44:30 2021
 By root
Copyright (c) 2021 by www.fontiran.com (Moslem Ebrahimi). All rights reserved.
</metadata>
<defs>
<font id="IRANSansX-Light" horiz-adv-x="0" >
  <font-face 
    font-family="IRANSansX Light"
    font-weight="300"
    font-stretch="normal"
    units-per-em="1000"
    panose-1="0 0 0 0 0 0 0 0 0 0"
    ascent="800"
    descent="-200"
    x-height="528"
    cap-height="711"
    bbox="-57 -484 2184 1007"
    underline-thickness="16"
    underline-position="-221"
    unicode-range="U+000D-FEFF"
  />
<missing-glyph horiz-adv-x="255" 
d="M38 429h179v-433h-179v433zM208 4v417h-161v-417h161z" />
    <glyph glyph-name="uni06AA" unicode="&#x6a9;&#x621;&#x621;" horiz-adv-x="1214" 
d="M103 204q0 -13 1 -20q8 -59 86.5 -91t224.5 -31q2 -24 2 -35q0 -12 -2 -36q-171 -1 -267 46.5t-105 137.5q-1 8 -1 24q0 41 10.5 84.5t25.5 77.5l55 -27q-30 -80 -30 -130zM575 471.5q-63 -33.5 -103 -75t-50 -78.5q38 -12 118 -16t288 -6q181 -3 258.5 -43t77.5 -121
q0 -41 -10.5 -62.5t-33 -32.5t-65.5 -19q-162 -27 -641 -27h-6v70h6q257 0 444 7.5t249 22.5q2 18 2 25q0 43 -32.5 66.5t-108 34.5t-211.5 13q-173 2 -261.5 9.5t-126.5 27.5q-2 16 -2 25q0 64 45 124.5t121 104t166 59.5l15 -60q-76 -15 -139 -48.5z" />
    <glyph glyph-name="uni06AA.001" unicode="&#x6af;&#x621;&#x621;" horiz-adv-x="1214" 
d="M103 204q0 -13 1 -20q8 -59 86.5 -91t224.5 -31q2 -24 2 -35q0 -12 -2 -36q-171 -1 -267 46.5t-105 137.5q-1 8 -1 24q0 41 10.5 84.5t25.5 77.5l55 -27q-30 -80 -30 -130zM575 471.5q-63 -33.5 -103 -75t-50 -78.5q38 -12 118 -16t288 -6q181 -3 258.5 -43t77.5 -121
q0 -41 -10.5 -62.5t-33 -32.5t-65.5 -19q-162 -27 -641 -27h-6v70h6q257 0 444 7.5t249 22.5q2 18 2 25q0 43 -32.5 66.5t-108 34.5t-211.5 13q-173 2 -261.5 9.5t-126.5 27.5q-2 16 -2 25q0 64 45 124.5t121 104t166 59.5l15 -60q-76 -15 -139 -48.5zM469.5 598
q74.5 45 145.5 59l4 -42q-64 -14 -131.5 -55.5t-105.5 -91.5l-21 34q34 51 108.5 96z" />
    <glyph glyph-name="uni06AA.fina" unicode="&#xfeda;&#x621;&#x621;" horiz-adv-x="1222" 
d="M1147.5 27.5q-26.5 27.5 -25.5 67.5q0 7 9.5 14.5t19 10.5t9.5 -2q-1 -28 14 -38t44 -10h10v-70h-10q-44 0 -70.5 27.5zM103 204q0 -13 1 -20q8 -59 86.5 -91t224.5 -31q2 -24 2 -35q0 -12 -2 -36q-171 -1 -267 46.5t-105 137.5q-1 8 -1 24q0 41 10.5 84.5t25.5 77.5
l55 -27q-30 -80 -30 -130zM575 471.5q-63 -33.5 -103 -75t-50 -78.5q38 -12 118 -16t288 -6q181 -3 258.5 -43t77.5 -121q0 -41 -10.5 -62.5t-33 -32.5t-65.5 -19q-162 -27 -641 -27h-6v70h6q257 0 444 7.5t249 22.5q2 18 2 25q0 43 -32.5 66.5t-108 34.5t-211.5 13
q-173 2 -261.5 9.5t-126.5 27.5q-2 16 -2 25q0 64 45 124.5t121 104t166 59.5l15 -60q-76 -15 -139 -48.5z" />
    <glyph glyph-name="uni06AA.fina.001" unicode="&#xfb93;&#x621;&#x621;" horiz-adv-x="1222" 
d="M1147.5 27.5q-26.5 27.5 -25.5 67.5q0 7 9.5 14.5t19 10.5t9.5 -2q-1 -28 14 -38t44 -10h10v-70h-10q-44 0 -70.5 27.5zM103 204q0 -13 1 -20q8 -59 86.5 -91t224.5 -31q2 -24 2 -35q0 -12 -2 -36q-171 -1 -267 46.5t-105 137.5q-1 8 -1 24q0 41 10.5 84.5t25.5 77.5
l55 -27q-30 -80 -30 -130zM575 471.5q-63 -33.5 -103 -75t-50 -78.5q38 -12 118 -16t288 -6q181 -3 258.5 -43t77.5 -121q0 -41 -10.5 -62.5t-33 -32.5t-65.5 -19q-162 -27 -641 -27h-6v70h6q257 0 444 7.5t249 22.5q2 18 2 25q0 43 -32.5 66.5t-108 34.5t-211.5 13
q-173 2 -261.5 9.5t-126.5 27.5q-2 16 -2 25q0 64 45 124.5t121 104t166 59.5l15 -60q-76 -15 -139 -48.5zM470.5 595q74.5 45 144.5 59l4 -42q-63 -13 -131 -55t-106 -92l-21 34q35 51 109.5 96z" />
    <glyph glyph-name="uni06AA.medi" unicode="&#xfedc;&#xfe8c;&#xfe8c;" horiz-adv-x="904" 
d="M828.5 28.5q-28.5 28.5 -26.5 66.5q0 7 9.5 14t19 9.5t9.5 -2.5q-1 -26 14 -36t45 -10h10v-70h-10q-42 0 -70.5 28.5zM260 475q-63 -34 -102.5 -75t-50.5 -79q38 -11 115 -15t292 -7q179 -2 257 -42t78 -119q0 -62 -24 -87t-85 -29q-88 -8 -293.5 -15t-424.5 -7h-28v70
h28q244 0 471.5 7t298.5 18q2 18 2 25q0 42 -32.5 66t-107.5 34.5t-211 12.5q-175 2 -263 9.5t-125 27.5q-2 18 -2 26q0 65 45 125t120.5 103t165.5 59l15 -59q-76 -15 -139 -49z" />
    <glyph glyph-name="uni06AA.medi.001" unicode="&#xfb95;&#xfe8c;&#xfe8c;" horiz-adv-x="904" 
d="M828.5 28.5q-28.5 28.5 -26.5 66.5q0 7 9.5 14t19 9.5t9.5 -2.5q-1 -26 14 -36t45 -10h10v-70h-10q-42 0 -70.5 28.5zM260 475q-63 -34 -102.5 -75t-50.5 -79q38 -11 115 -15t292 -7q179 -2 257 -42t78 -119q0 -62 -24 -87t-85 -29q-88 -8 -293.5 -15t-424.5 -7h-28v70
h28q244 0 471.5 7t298.5 18q2 18 2 25q0 42 -32.5 66t-107.5 34.5t-211 12.5q-175 2 -263 9.5t-125 27.5q-2 18 -2 26q0 65 45 125t120.5 103t165.5 59l15 -59q-76 -15 -139 -49zM153.5 596q74.5 45 145.5 59l4 -42q-63 -13 -131 -55t-106 -92l-21 34q34 51 108.5 96z" />
    <glyph glyph-name="uni06AA.init" unicode="&#xfedb;&#xfe8c;&#xfe8c;" horiz-adv-x="900" 
d="M260 475q-63 -34 -102.5 -75t-50.5 -79q38 -11 115 -15t292 -7q179 -2 257 -42t78 -119q0 -62 -24 -87t-85 -29q-88 -8 -293.5 -15t-424.5 -7h-28v70h28q244 0 471.5 7t298.5 18q2 18 2 25q0 42 -32.5 66t-107.5 34.5t-211 12.5q-175 2 -263 9.5t-125 27.5q-2 18 -2 26
q0 65 45 125t120.5 103t165.5 59l15 -59q-76 -15 -139 -49z" />
    <glyph glyph-name="uni06AA.init.001" unicode="&#xfb94;&#xfe8c;&#xfe8c;" horiz-adv-x="900" 
d="M260 475q-63 -34 -102.5 -75t-50.5 -79q38 -11 115 -15t292 -7q179 -2 257 -42t78 -119q0 -62 -24 -87t-85 -29q-88 -8 -293.5 -15t-424.5 -7h-28v70h28q244 0 471.5 7t298.5 18q2 18 2 25q0 42 -32.5 66t-107.5 34.5t-211 12.5q-175 2 -263 9.5t-125 27.5q-2 18 -2 26
q0 65 45 125t120.5 103t165.5 59l15 -59q-76 -15 -139 -49zM153.5 596q74.5 45 145.5 59l4 -42q-63 -13 -131 -55t-106 -92l-21 34q34 51 108.5 96z" />
    <glyph glyph-name="uni0647.fina.alt" unicode="&#xfeea;&#x621;&#x621;&#x621;" horiz-adv-x="624" 
d="M337.5 46.5q-92.5 46.5 -107.5 150.5q-2 18 -2 26q0 46 20 87t54 66.5t74 25.5q39 0 76 -26.5t62.5 -69.5t30.5 -91q5 -59 -44.5 -108.5t-129 -78t-155.5 -28.5q-65 0 -110 22t-58 67q-8 29 -8 53q0 79 95.5 153t338.5 153l23 -66q-205 -57 -302 -123t-97 -126
q0 -36 30.5 -53t80.5 -17q58 0 123.5 21t109.5 56.5t44 74.5q0 29 -16 58t-41.5 47t-50.5 18q-30 0 -52 -19.5t-33 -50t-7 -63.5q11 -69 89.5 -102t238.5 -33h13v-70h-13q-184 0 -276.5 46.5z" />
    <glyph glyph-name="uni0647.medi.alt" unicode="&#xfeec;&#xfe8c;&#xfe8c;" horiz-adv-x="441" 
d="M447 70l4 -35l-4 -35h-22q-54 0 -87 -31.5t-33 -81.5q0 -43 28 -90l-31 -57q-53 8 -107 43.5t-90.5 102t-36.5 161.5q0 72 16.5 142.5t38.5 124.5t40 81l59 20q62 -35 99 -90t37 -116q0 -65 -42 -112.5t-119 -72t-179 -24.5h-22v70h22q136 0 206.5 36.5t74.5 102.5
q2 37 -23.5 75.5t-68.5 64.5q-29 -44 -53 -128t-24 -168q0 -85 35.5 -142t87.5 -86q-14 35 -14 72q0 48 24.5 87.5t67 62.5t94.5 23h22z" />
    <glyph glyph-name="uni06C0" unicode="&#x647;&#x654;" horiz-adv-x="421" 
d="M102 159q0 -42 29 -66.5t84 -24.5q47 0 79 23.5t34 60.5q4 62 -44.5 118t-166.5 127l35 57q122 -73 179 -141t57 -145q0 -15 -1 -23q-7 -65 -56.5 -106t-118.5 -41q-78 0 -124 43.5t-46 109.5q0 25 5 44q24 102 134 202l39 -46q-118 -99 -118 -192zM201 556q33 19 37 41
q0 6 -51 18q-39 12 -55.5 22.5t-16.5 33.5q0 34 18 62.5t46.5 45t57.5 16.5t48 -13l-18 -37q-18 6 -30 6q-31 0 -57 -22t-29 -54q0 -3 14 -7.5t35 -10.5q38 -10 56 -21t18 -33q0 -28 -19 -53.5t-57 -41t-93 -14.5l6 43q57 0 90 19z" />
    <glyph glyph-name="uni06C0.fina" unicode="&#xfeea;&#x654;" horiz-adv-x="470" arabic-form="final" 
d="M358 198q5 -50 15.5 -77.5t32 -39t58.5 -11.5h13l3 -35l-3 -35h-13q-77 0 -117.5 44.5t-50.5 144.5q-2 23 -5 51.5t-6 60.5q-4 36 -16 151l63 12q17 -183 26 -266zM217 54q-77 0 -126.5 35t-49.5 94q0 71 68.5 125t180.5 89l14 -66q-83 -22 -141 -60t-61 -74
q-3 -32 27.5 -52.5t82.5 -20.5q51 0 107 20l16 -70q-59 -20 -118 -20zM173 490q33 19 37 41q0 6 -51 18q-39 12 -55.5 22.5t-16.5 33.5q0 34 18 62.5t46.5 45t57.5 16.5t48 -13l-18 -37q-18 6 -30 6q-31 0 -57 -22t-29 -54q0 -3 14 -7.5t35 -10.5q38 -10 56 -21t18 -33
q0 -28 -19 -53.5t-57 -41t-93 -14.5l6 43q57 0 90 19z" />
    <glyph glyph-name="uni06C1.fina" unicode="&#xfeea;&#x621;&#x621;" horiz-adv-x="522" arabic-form="final" 
d="M528 70l3 -35l-3 -35h-7q-96 0 -162.5 58t-108.5 144q-31 -11 -64 -42t-59 -76t-35 -97l-45 30q8 57 37.5 108.5t69.5 88.5t78 53q14 7 28 7q25 0 44 -31q26 -49 52.5 -85t67.5 -62t96 -26h8z" />
    <glyph glyph-name="uni06C1.medi" unicode="&#xfeec;&#xfe8c;&#xfe8c;&#xfe8c;&#xfe8c;" horiz-adv-x="448" arabic-form="medial" 
d="M162.5 -105.5q-49.5 92.5 -48.5 202.5l32 1q-12 -49 -49.5 -73.5t-89.5 -24.5h-12v70h16q49 0 74 20.5t31 62.5l59 8q-1 -12 -1 -34q0 -108 35.5 -186.5t104.5 -116.5l-34 -19q-17 38 -17 81q0 48 22 90.5t60.5 68t86.5 25.5h22l3 -35l-3 -35h-22q-53 0 -81 -34.5
t-28 -86.5q0 -39 16 -79l-44 -39q-83 41 -132.5 133.5z" />
    <glyph glyph-name="uni06BE" unicode="&#x647;&#x621;&#x621;" horiz-adv-x="674" 
d="M308 107.5q78 37.5 78 116.5q0 45 -26 78.5t-65 33.5q-25 0 -49 -17t-40 -45t-18 -57q-1 -39 42.5 -73t109 -54.5t124.5 -20.5q44 0 72.5 12t34.5 37q2 6 2 18q0 58 -94.5 121.5t-301.5 124.5l22 66q239 -73 336 -148.5t97 -157.5q0 -26 -8 -53q-13 -45 -58 -67t-109 -22
q-76 0 -155 28.5t-128.5 78t-44.5 108.5q4 48 29.5 91t63 69.5t76.5 26.5q40 0 74 -25t54 -66t20 -87q0 -9 -2 -27q-15 -104 -113 -150.5t-290 -46.5l22 70q167 0 245 37.5z" />
    <glyph glyph-name="uni06BE.fina" unicode="&#xfeea;&#x621;&#x621;&#x621;&#x621;" horiz-adv-x="548" arabic-form="final" 
d="M359 -238q-51 0 -99.5 32.5t-80 97t-31.5 154.5q0 112 32.5 205.5t66.5 143.5l54 20q61 -35 98.5 -91t37.5 -115q0 -97 -83 -151t-241 -57l-49 -1l-20 61l100 6q69 2 122.5 22.5t83 53.5t29.5 71q0 36 -25 72t-67 63q-29 -45 -53.5 -129t-24.5 -168q0 -69 23.5 -120.5
t59.5 -78t71 -26.5q31 0 50 19q13 13 13 37q0 39 -32.5 87.5t-87.5 79.5l15 59q52 -21 105 -30t128 -9l4 -35l-4 -35q-75 0 -128.5 12t-116.5 40l15 40q71 -30 117.5 -88.5t46.5 -117.5q0 -51 -39 -89q-37 -35 -90 -35z" />
    <glyph glyph-name="uni06BE.medi" unicode="&#xfeec;&#xfe8c;&#xfe8c;&#xfe8c;" horiz-adv-x="619" arabic-form="medial" 
d="M624 70l4 -35l-4 -35q-139 0 -197 8l47 65q35 -3 150 -3zM-3 70h13q160 0 238.5 33t89.5 102q1 5 1 16q0 47 -26 82t-67 35q-25 0 -50.5 -18.5t-41.5 -47t-16 -58.5q0 -39 44.5 -74t110 -56t123.5 -21q49 0 79.5 17.5t30.5 52.5q0 60 -97 126t-302 123l23 66
q243 -79 338.5 -153t95.5 -153q0 -24 -8 -53q-13 -45 -58 -67t-110 -22q-76 0 -155.5 28.5t-129 78t-44.5 108.5q5 48 30.5 91t62.5 69.5t76 26.5t73.5 -25t54.5 -66.5t20 -87.5q0 -8 -2 -26q-15 -104 -107.5 -150.5t-276.5 -46.5h-13v70z" />
    <glyph glyph-name="uni06D2" unicode="&#x649;&#x621;&#x621;" horiz-adv-x="940" 
d="M49 82q0 60 44.5 125.5t106.5 110t108 44.5q34 0 63.5 -27t47.5 -60l-44 -36q-13 22 -32 37t-38 15q-34 0 -78 -32t-79 -75.5t-42 -71.5q21 -15 96.5 -30.5t193.5 -16.5h70q253 0 453 16l-25 -71q-200 -16 -409 -16l-89 1q-150 1 -227 18t-118 47q-2 14 -2 22z" />
    <glyph glyph-name="uni06D2.fina" unicode="&#xfbfd;&#x621;&#x621;" horiz-adv-x="414" arabic-form="final" 
d="M51 -126q0 57 36.5 101.5t101.5 69.5t147 25h81l3 -35l-3 -35h-81q-63 0 -114 -16t-81 -39.5t-34 -45.5q17 -11 75 -22.5t168 -11.5q201 0 340 8l-25 -71q-113 -7 -315 -7q-123 0 -189 13t-108 38q-2 10 -2 28z" />
    <glyph glyph-name="uni06D2.fina.alt2" unicode="&#xfbfd;&#x621;&#x621;&#x621;&#x621;&#x621;" horiz-adv-x="353" 
d="M48 -125q0 57 36.5 101.5t101.5 69t147 24.5h26l3 -35l-3 -35h-26q-63 0 -114 -16t-81 -40t-34 -45q15 -13 63 -23.5t124 -10.5q124 0 242 4l-25 -71q-92 -3 -217 -3q-111 0 -164.5 13t-76.5 38q-2 10 -2 29z" />
    <glyph glyph-name="uni06D2.fina.alt3" unicode="&#xfbfd;&#x621;&#x621;&#x621;&#x621;" horiz-adv-x="414" 
d="M51 -126q0 57 36.5 101.5t101.5 69.5t147 25h81l3 -35l-3 -35h-81q-63 0 -114 -16t-81 -39.5t-34 -45.5q17 -11 75 -22.5t168 -11.5q201 0 340 8l-25 -71q-113 -7 -315 -7q-123 0 -189 13t-108 38q-2 10 -2 28z" />
    <glyph glyph-name="uni06D2.fina.alt4" unicode="&#xfbfd;&#x621;&#x621;&#x621;" horiz-adv-x="397" 
d="M41 -126q0 57 36.5 101.5t101.5 69.5t147 25h78l4 -35l-4 -35h-78q-63 0 -114 -16t-81 -39.5t-34 -45.5q8 -5 40.5 -13t90 -14.5t135.5 -6.5q201 0 407 8l-25 -70q-180 -8 -382 -8q-235 0 -320 51q-2 10 -2 28z" />
    <glyph glyph-name="uni06D3" unicode="&#x626;&#x621;&#x621;" horiz-adv-x="940" 
d="M49 82q0 60 44.5 125.5t106.5 110t108 44.5q34 0 63.5 -27t47.5 -60l-44 -36q-13 22 -32 37t-38 15q-34 0 -78 -32t-79 -75.5t-42 -71.5q21 -15 96.5 -30.5t193.5 -16.5h70q253 0 453 16l-25 -71q-200 -16 -409 -16l-89 1q-150 1 -227 18t-118 47q-2 14 -2 22zM195 460
q-29 26 -29 62q0 30 19 55.5t49 32.5q12 3 25 3q16 0 34 -4.5t32 -8.5l-11 -43q-34 12 -54 12q-28 0 -44.5 -17.5t-11.5 -38.5q3 -16 22.5 -29t45.5 -13l-7 -41q-41 4 -70 30zM137 430l210 69v-44l-210 -68v43z" />
    <glyph glyph-name="uni06D3.fina" unicode="&#xfe8a;&#x621;&#x621;" horiz-adv-x="414" arabic-form="final" 
d="M51 -126q0 57 36.5 101.5t101.5 69.5t147 25h81l3 -35l-3 -35h-81q-63 0 -114 -16t-81 -39.5t-34 -45.5q17 -11 75 -22.5t168 -11.5q201 0 340 8l-25 -71q-113 -7 -315 -7q-123 0 -189 13t-108 38q-2 10 -2 28zM163 178q-29 26 -29 62q0 30 19 55.5t49 32.5q12 3 25 3
q16 0 34 -4.5t32 -8.5l-11 -43q-34 12 -54 12q-28 0 -44.5 -17.5t-11.5 -38.5q3 -16 22.5 -29t45.5 -13l-7 -41q-41 4 -70 30zM105 148l210 69v-44l-210 -68v43z" />
    <glyph glyph-name="uni06440627" unicode="&#xfedf;&#xfe8e;" horiz-adv-x="532" arabic-form="isolated" 
d="M480 460q7 -92 6 -197q-2 -139 -112 -205.5t-277 -80.5l-17 69q342 33 342 216q0 101 -6.5 183t-21.5 223l63 13q16 -129 23 -221zM206 340.5q34 -124.5 34 -211.5q0 -36 -6 -63l-63 -17q9 27 9 66q0 82 -34 202t-86 244l54 36q58 -132 92 -256.5z" />
    <glyph glyph-name="uni06440627.fina" unicode="&#xfee0;&#xfe8e;" horiz-adv-x="604" arabic-form="final" 
d="M477.5 67.5q-37.5 67.5 -37.5 177.5q0 35 8 54t18 19q9 0 14.5 -12t5.5 -33q0 -101 24 -152t89 -51h10v-70h-11q-83 0 -120.5 67.5zM480 460q7 -92 6 -197q-2 -139 -112 -205.5t-277 -80.5l-17 69q342 33 342 216q0 101 -6.5 183t-21.5 223l63 13q16 -129 23 -221z
M206 340.5q34 -124.5 34 -211.5q0 -36 -6 -63l-63 -17q9 27 9 66q0 82 -34 202t-86 244l54 36q58 -132 92 -256.5z" />
    <glyph glyph-name="uni06440623" unicode="&#xfedf;&#xfe84;" horiz-adv-x="531" arabic-form="isolated" 
d="M478 460q7 -92 6 -197q-2 -139 -112 -205.5t-277 -80.5l-17 69q342 33 342 216q0 101 -6.5 183t-21.5 223l63 13q16 -129 23 -221zM204 340.5q34 -124.5 34 -211.5q0 -36 -6 -63l-63 -17q9 27 9 66q0 82 -34 202t-86 244l54 36q58 -132 92 -256.5zM77 678q-29 26 -29 62
q0 30 19 55.5t49 32.5q12 3 25 3q16 0 34 -4.5t32 -8.5l-11 -43q-34 12 -54 12q-28 0 -44.5 -17.5t-11.5 -38.5q3 -16 22.5 -29t45.5 -13l-7 -41q-41 4 -70 30zM19 648l210 69v-44l-210 -68v43z" />
    <glyph glyph-name="uni06440623.fina" unicode="&#xfee0;&#xfe84;" horiz-adv-x="602" arabic-form="final" 
d="M475.5 67.5q-37.5 67.5 -37.5 177.5q0 35 8 54t18 19q9 0 14.5 -12t5.5 -33q0 -101 24 -152t89 -51h10v-70h-11q-83 0 -120.5 67.5zM478 460q7 -92 6 -197q-2 -139 -112 -205.5t-277 -80.5l-17 69q342 33 342 216q0 101 -6.5 183t-21.5 223l63 13q16 -129 23 -221z
M204 340.5q34 -124.5 34 -211.5q0 -36 -6 -63l-63 -17q9 27 9 66q0 82 -34 202t-86 244l54 36q58 -132 92 -256.5zM77 678q-29 26 -29 62q0 30 19 55.5t49 32.5q12 3 25 3q16 0 34 -4.5t32 -8.5l-11 -43q-34 12 -54 12q-28 0 -44.5 -17.5t-11.5 -38.5q3 -16 22.5 -29
t45.5 -13l-7 -41q-41 4 -70 30zM19 648l210 69v-44l-210 -68v43z" />
    <glyph glyph-name="uni06440625" unicode="&#xfedf;&#xfe88;" horiz-adv-x="532" arabic-form="isolated" 
d="M480 460q7 -92 6 -197q-2 -139 -112 -205.5t-277 -80.5l-17 69q342 33 342 216q0 101 -6.5 183t-21.5 223l63 13q16 -129 23 -221zM206 340.5q34 -124.5 34 -211.5q0 -36 -6 -63l-63 -17q9 27 9 66q0 82 -34 202t-86 244l54 36q58 -132 92 -256.5zM122 -214
q-29 26 -29 62q0 30 19 55.5t49 32.5q12 3 25 3q16 0 34 -4.5t32 -8.5l-11 -43q-34 12 -54 12q-28 0 -44.5 -17.5t-11.5 -38.5q3 -16 22.5 -29t45.5 -13l-7 -41q-41 4 -70 30zM64 -244l210 69v-44l-210 -68v43z" />
    <glyph glyph-name="uni06440625.fina" unicode="&#xfee0;&#xfe88;" horiz-adv-x="604" arabic-form="final" 
d="M477.5 67.5q-37.5 67.5 -37.5 177.5q0 35 8 54t18 19q9 0 14.5 -12t5.5 -33q0 -101 24 -152t89 -51h10v-70h-11q-83 0 -120.5 67.5zM480 460q7 -92 6 -197q-2 -139 -112 -205.5t-277 -80.5l-17 69q342 33 342 216q0 101 -6.5 183t-21.5 223l63 13q16 -129 23 -221z
M206 340.5q34 -124.5 34 -211.5q0 -36 -6 -63l-63 -17q9 27 9 66q0 82 -34 202t-86 244l54 36q58 -132 92 -256.5zM122 -214q-29 26 -29 62q0 30 19 55.5t49 32.5q12 3 25 3q16 0 34 -4.5t32 -8.5l-11 -43q-34 12 -54 12q-28 0 -44.5 -17.5t-11.5 -38.5q3 -16 22.5 -29
t45.5 -13l-7 -41q-41 4 -70 30zM64 -244l210 69v-44l-210 -68v43z" />
    <glyph glyph-name="uni06440622" unicode="&#xfedf;&#xfe82;" horiz-adv-x="535" arabic-form="isolated" 
d="M482 460q7 -92 6 -197q-2 -139 -112 -205.5t-277 -80.5l-17 69q342 33 342 216q0 101 -6.5 183t-21.5 223l63 13q16 -129 23 -221zM208 340.5q34 -124.5 34 -211.5q0 -36 -6 -63l-63 -17q9 27 9 66q0 82 -34 202t-86 244l54 36q58 -132 92 -256.5zM51 694q25 22 57 22
q16 0 29 -3.5t33 -11.5q16 -7 27.5 -10.5t24.5 -3.5q19 0 39 11t33 30l29 -25q-19 -28 -46 -44.5t-55 -16.5q-17 0 -30.5 4t-31.5 12q-16 7 -27.5 10.5t-25.5 3.5q-20 0 -37.5 -15.5t-27.5 -43.5l-33 17q17 42 42 64z" />
    <glyph glyph-name="uni06440622.fina" unicode="&#xfee0;&#xfe82;" horiz-adv-x="607" arabic-form="final" 
d="M480.5 67.5q-37.5 67.5 -37.5 177.5q0 35 8 54t18 19q9 0 14.5 -12t5.5 -33q0 -101 24 -152t89 -51h10v-70h-11q-83 0 -120.5 67.5zM483 460q7 -92 6 -197q-2 -139 -112 -205.5t-277 -80.5l-17 69q342 33 342 216q0 101 -6.5 183t-21.5 223l63 13q16 -129 23 -221z
M209 340.5q34 -124.5 34 -211.5q0 -36 -6 -63l-63 -17q9 27 9 66q0 82 -34 202t-86 244l54 36q58 -132 92 -256.5zM50 694q25 22 57 22q16 0 29 -3.5t33 -11.5q16 -7 27.5 -10.5t24.5 -3.5q19 0 39 11t33 30l29 -25q-19 -28 -46 -44.5t-55 -16.5q-17 0 -30.5 4t-31.5 12
q-16 7 -27.5 10.5t-25.5 3.5q-20 0 -37.5 -15.5t-27.5 -43.5l-33 17q17 42 42 64z" />
    <glyph glyph-name="uni06440671" unicode="&#xfedf;&#xfb51;" horiz-adv-x="532" 
d="M480 460q7 -92 6 -197q-2 -139 -112 -205.5t-277 -80.5l-17 69q342 33 342 216q0 101 -6.5 183t-21.5 223l63 13q16 -129 23 -221zM206 340.5q34 -124.5 34 -211.5q0 -36 -6 -63l-63 -17q9 27 9 66q0 82 -34 202t-86 244l54 36q58 -132 92 -256.5zM44 673q21 14 44 14
q12 0 26.5 -4.5t20.5 -6.5q16 -5 34 -9t34 -4q7 0 21 2q26 5 42 17.5t17 26.5q0 11 -12 20t-29 9q-30 0 -59 -23.5t-49 -63.5l-30 18q25 51 62 81t77 30q31 0 52.5 -19.5t21.5 -49.5q0 -37 -33.5 -63t-81.5 -26q-38 0 -78 14q-25 7 -35 7q-8 0 -12 -1q-11 -1 -18.5 -7
t-12.5 -12t-7 -8l-30 20q14 24 35 38z" />
    <glyph glyph-name="uni06440671.fina" unicode="&#xfee0;&#xfb51;" horiz-adv-x="604" 
d="M477.5 67.5q-37.5 67.5 -37.5 177.5q0 35 8 54t18 19q9 0 14.5 -12t5.5 -33q0 -101 24 -152t89 -51h10v-70h-11q-83 0 -120.5 67.5zM480 460q7 -92 6 -197q-2 -139 -112 -205.5t-277 -80.5l-17 69q342 33 342 216q0 101 -6.5 183t-21.5 223l63 13q16 -129 23 -221z
M206 340.5q34 -124.5 34 -211.5q0 -36 -6 -63l-63 -17q9 27 9 66q0 82 -34 202t-86 244l54 36q58 -132 92 -256.5zM44 673q21 14 44 14q12 0 26.5 -4.5t20.5 -6.5q16 -5 34 -9t34 -4q7 0 21 2q26 5 42 17.5t17 26.5q0 11 -12 20t-29 9q-30 0 -59 -23.5t-49 -63.5l-30 18
q25 51 62 81t77 30q31 0 52.5 -19.5t21.5 -49.5q0 -37 -33.5 -63t-81.5 -26q-38 0 -78 14q-25 7 -35 7q-8 0 -12 -1q-11 -1 -18.5 -7t-12.5 -12t-7 -8l-30 20q14 24 35 38z" />
    <glyph glyph-name="uni06A90644" unicode="&#xfb90;&#xfede;" horiz-adv-x="1073" 
d="M600.5 51q-45.5 51 -46.5 144l37 6q4 -66 38.5 -98.5t93.5 -32.5q75 0 115 19t56 59q6 15 6 33q0 58 -58.5 140t-160.5 166l8 66l363 158l21 -59l-321 -139q88 -74 148.5 -167.5t60.5 -169.5q0 -30 -10 -54q-25 -63 -81.5 -92.5t-146.5 -29.5q-77 0 -122.5 51z
M577.5 494.5q6.5 -140.5 8.5 -182.5l10 -230q7 -157 -68 -243.5t-218 -86.5q-76 0 -137.5 31t-97 88t-35.5 131q0 50 18 113t46 118l55 -26q-26 -51 -41 -103t-15 -97q0 -54 25.5 -96t72.5 -65t109 -23q236 0 224 255q-10 227 -17.5 383t-13.5 207l63 13q5 -46 11.5 -186.5z
" />
    <glyph glyph-name="uni06A90644.fina" unicode="&#xfb91;&#xfede;" horiz-adv-x="1168" 
d="M600.5 51q-45.5 51 -46.5 144l37 6q4 -66 38.5 -98.5t93.5 -32.5q75 0 115 19t56 59q6 15 6 33q0 58 -58.5 140t-160.5 166l8 66l363 158l21 -59l-321 -139q88 -74 149 -166.5t61 -168.5q0 -29 -11 -56q-26 -63 -82 -92.5t-146 -29.5q-77 0 -122.5 51zM1066 30
q-43 30 -84.5 89.5t-99.5 166.5l33 37q56 -98 93.5 -150t73.5 -77t80 -25l11 -1l4 -35l-4 -35h-11q-53 0 -96 30zM577.5 494.5q6.5 -140.5 8.5 -182.5l10 -230q7 -157 -68 -243.5t-218 -86.5q-76 0 -137.5 31t-97 88t-35.5 131q0 50 18 113t46 118l55 -26q-26 -51 -41 -103
t-15 -97q0 -54 25.5 -96t72.5 -65t109 -23q236 0 224 255q-10 227 -17.5 383t-13.5 207l63 13q5 -46 11.5 -186.5z" />
    <glyph glyph-name="uni06AF0644" unicode="&#xfb94;&#xfede;" horiz-adv-x="1073" 
d="M601 50.5q-45 50.5 -47 144.5l38 6q4 -66 38 -98.5t93 -32.5q144 0 171 78q5 15 5 31q0 57 -57.5 136.5t-160.5 162.5l8 66l363 158l21 -59l-321 -140q89 -74 149.5 -163t60.5 -163q0 -28 -11 -55q-26 -63 -82 -92.5t-146 -29.5q-77 0 -122 50.5zM577.5 494.5
q6.5 -140.5 8.5 -182.5l10 -230q7 -157 -68 -243.5t-218 -86.5q-76 0 -137.5 31t-97 88t-35.5 131q0 50 18 113t46 118l55 -26q-26 -51 -41 -103t-15 -97q0 -54 25.5 -96t72.5 -65t109 -23q236 0 224 255q-10 227 -17.5 383t-13.5 207l63 13q5 -46 11.5 -186.5zM693 651
l314 135l15 -34l-334 -144z" />
    <glyph glyph-name="uni06AF0644.fina" unicode="&#xfb95;&#xfede;" horiz-adv-x="1168" 
d="M600.5 51q-45.5 51 -46.5 144l37 6q4 -66 38.5 -98.5t93.5 -32.5q144 0 171 78q5 15 5 31q0 57 -57.5 136.5t-160.5 162.5l8 66l363 158l21 -59l-321 -140q89 -74 149.5 -163t60.5 -163q0 -28 -11 -55q-26 -63 -82 -92.5t-146 -29.5q-77 0 -122.5 51zM577.5 494.5
q6.5 -140.5 8.5 -182.5l10 -230q7 -157 -68 -243.5t-218 -86.5q-76 0 -137.5 31t-97 88t-35.5 131q0 50 18 113t46 118l55 -26q-26 -51 -41 -103t-15 -97q0 -54 25.5 -96t72.5 -65t109 -23q236 0 224 255q-10 227 -17.5 383t-13.5 207l63 13q5 -46 11.5 -186.5zM693 651
l314 135l15 -34l-334 -144zM1010.5 169q37.5 -51 72.5 -74.5t80 -23.5l10 -1l4 -35l-4 -35h-10q-53 0 -97 30t-86 90t-100 166l33 35q60 -101 97.5 -152z" />
    <glyph glyph-name="uni064406440647" unicode="&#xfedf;&#xfee0;&#x651;&#x670;&#xfeea;" horiz-adv-x="931" 
d="M623.5 37q-44.5 38 -58.5 101q-13 252 -19 324l63 13q7 -83 21 -335q8 -32 35 -51t66 -19q46 0 72 31.5t26 88.5q0 33 -14.5 168.5t-25.5 229.5l64 13q38 -350 38 -410q0 -88 -44.5 -140t-114.5 -52q-64 0 -108.5 38zM214 59q-77 0 -126.5 34.5t-49.5 92.5q0 71 71 129
t181 92l14 -66q-54 -15 -101.5 -39.5t-75.5 -53t-28 -53.5q0 -30 31 -48t81 -18q53 0 107 20l16 -70q-60 -20 -120 -20zM350 39q-39 40 -48 123l-4 33q-14 120 -29 263l63 14q5 -59 12.5 -137.5t14.5 -140.5q6 -65 28.5 -95t74.5 -30q43 0 70.5 20.5t32.5 54.5l54 -33
q-18 -54 -59 -83t-98 -29q-73 0 -112 40zM471 615q0 -15 9 -24t25 -9q22 0 34.5 19.5t9.5 61.5l34 7q5 -42 16 -61t32 -19q18 0 27.5 9t9.5 24q0 13 -9.5 35.5t-21.5 39.5l31 21q36 -56 36 -94q0 -35 -19 -57t-53 -22q-30 0 -53 23t-26 82l29 3q4 -51 -18.5 -82.5
t-58.5 -31.5q-33 0 -51 19.5t-18 49.5q0 35 13 62l33 -14q-11 -27 -11 -42zM591 788q0 -24 -2 -68l-38 -1q2 48 2 74q0 55 -4 84l38 5q4 -54 4 -94z" />
    <glyph glyph-name="uniFDF2" unicode="&#x627;&#xfedf;&#xfee0;&#xfeea;" horiz-adv-x="1089" 
d="M623.5 37q-44.5 38 -58.5 101q-13 252 -19 324l63 13q7 -83 21 -335q8 -32 35 -51t66 -19q46 0 72 31.5t26 88.5q0 33 -14.5 168.5t-25.5 229.5l64 13q38 -350 38 -410q0 -88 -44.5 -140t-114.5 -52q-64 0 -108.5 38zM214 59q-77 0 -126.5 34.5t-49.5 92.5q0 71 71 129
t181 92l14 -66q-54 -15 -101.5 -39.5t-75.5 -53t-28 -53.5q0 -30 31 -48t81 -18q53 0 107 20l16 -70q-60 -20 -120 -20zM350 39q-39 40 -48 123l-4 33q-14 120 -29 263l63 14q5 -59 12.5 -137.5t14.5 -140.5q6 -65 28.5 -95t74.5 -30q43 0 70.5 20.5t32.5 54.5l54 -33
q-18 -54 -59 -83t-98 -29q-73 0 -112 40zM471 615q0 -15 9 -24t25 -9q22 0 34.5 19.5t9.5 61.5l34 7q5 -42 16 -61t32 -19q18 0 27.5 9t9.5 24q0 13 -9.5 35.5t-21.5 39.5l31 21q36 -56 36 -94q0 -35 -19 -57t-53 -22q-30 0 -53 23t-26 82l29 3q4 -51 -18.5 -82.5
t-58.5 -31.5q-33 0 -51 19.5t-18 49.5q0 35 13 62l33 -14q-11 -27 -11 -42zM591 788q0 -24 -2 -68l-38 -1q2 48 2 74q0 55 -4 84l38 5q4 -54 4 -94zM976 198q0 139 -5 289.5t-11 188.5l63 13q6 -39 12 -189.5t6 -288.5q0 -143 -7 -206l-63 8q5 48 5 185z" />
    <glyph glyph-name="uniFDFC.001" unicode="&#x621;&#x631;&#x621;" horiz-adv-x="1321" 
d="M1097 -76.5q57 32.5 92 73.5t39 79q1 7 1 27q0 41 -6 106t-15 126l62 13q21 -124 21 -224q0 -32 -3 -56q-7 -57 -48 -110t-106 -91t-141 -53l-18 64q65 13 122 45.5zM702 -212q-70 0 -120 6l13 59q47 -5 95 -5q111 0 203 17l16 -62q-91 -15 -207 -15zM673 675
q39 0 44 -48q2 -48 16 -393l1 -36q2 -71 9 -102t31.5 -46t81.5 -15q102 0 143.5 23.5t41.5 71.5q0 40 -18 97.5t-35 95.5l56 30q19 -41 38.5 -108t19.5 -114q0 -84 -60.5 -125.5t-193.5 -41.5q-75 0 -112 23.5t-50 70t-16 134.5q-2 45 -6 176q-7 200 -9 245l-119 -24l9 -212
l12 -277q12 -320 -259 -320q-73 0 -129 30.5t-87.5 86.5t-31.5 130q0 97 62 219l54 -27q-56 -112 -56 -191q0 -84 49.5 -131t138.5 -47q108 0 156 58t42 189q-13 313 -25 480l41 67l146 30q5 1 15 1z" />
    <glyph glyph-name="uniFDFC.002" unicode="&#x621;&#x631;&#x621;&#x621;" horiz-adv-x="1271" 
d="M1089.5 111.5q51.5 43.5 51.5 114.5q0 38 -16 117t-35 135l59 22q23 -66 37 -143.5t14 -130.5q0 -99 -64.5 -158.5t-190.5 -94.5l-18 62q111 33 162.5 76.5zM728 -67q-71 -8 -141 -8q-22 0 -64 2l8 59q13 -1 39 -1q70 0 144.5 9t124.5 22l13 -62q-53 -13 -124 -21z
M615 742q21 0 33 -14t14 -39q1 -14 2 -34t2 -48l12 -254q3 -68 10.5 -100t32.5 -47t80 -15q81 1 119.5 26.5t33.5 69.5q-6 49 -17 88.5t-13 45.5l57 21q2 -7 14.5 -53t18.5 -102q1 -6 1 -18q0 -69 -58 -108t-163 -40q-73 0 -110.5 24.5t-51.5 71.5t-16 130l-3 72
q-7 208 -12 264l-123 -29q1 -15 2.5 -35.5t3.5 -48.5q12 -182 22 -347q1 -13 1 -38q0 -109 -44 -162t-144 -53q-130 0 -186 41.5t-56 125.5q0 48 19 115t38 107l52 -29q-15 -33 -32 -93t-17 -101q0 -49 40.5 -72.5t140.5 -23.5q50 0 78 12t39.5 39.5t11.5 76.5q0 26 -1 41
q-18 302 -30 432l42 68l141 31q12 2 16 2z" />
    <glyph glyph-name="tomaan" unicode="&#x621;&#x62a;&#x621;" horiz-adv-x="2234" 
d="M109 178q0 -98 60.5 -154t168.5 -56q85 0 142.5 31.5t85 80t27.5 98.5q0 45 -23 134t-58 207l-10 33l41 74l212 52q12 3 22 3q39 0 42 -46q5 -86 11 -266q5 -132 5 -135q2 -69 9.5 -101.5t32 -47.5t78.5 -15l-2 -70q-75 0 -113 23.5t-52 71t-16 133.5q-2 48 -2 90
q-1 23 -4 128t-8 168l-199 -47l14 -47q32 -101 54 -190t22 -152q0 -69 -36.5 -133.5t-107.5 -106t-167 -41.5q-95 0 -160 38.5t-96.5 100t-31.5 131.5q0 61 19 127t45 117l55 -26q-60 -113 -60 -207zM1257 84.5q50 -23.5 77 -23.5q8 0 18 4q20 9 30 31.5t10 51.5
q0 33 -12.5 65.5t-35 54t-51.5 21.5q-37 0 -68.5 -42.5t-74.5 -131.5q-27 -57 -74 -86t-105 -29h-18v70h20q43 0 78.5 23t59.5 67q35 65 59 103.5t55.5 65t68.5 26.5q44 0 78 -30t52.5 -78t18.5 -98q0 -49 -18 -88t-54 -57q-15 -8 -39 -8q-75 0 -219 97l29 58
q65 -43 115 -66.5zM1724.5 -112.5q79.5 50.5 79.5 142.5q0 60 -14.5 121t-44.5 102t-73 41q-23 0 -45.5 -21.5t-36.5 -54t-14 -61.5q0 -22 9 -37q17 -30 74.5 -40.5t143.5 -10.5l98 1v-70l-105 -1q-103 0 -170 16t-93 64q-16 31 -16 70q0 49 22.5 99t59.5 83t77 33
q58 0 100.5 -52t64 -128.5t21.5 -148.5q0 -120 -91 -190t-264 -84l-20 64q158 12 237.5 62.5zM2071 93.5q53 23.5 53 74.5q-1 40 -19 97t-35 93l57 30q19 -43 38 -108.5t19 -113.5q0 -83 -68.5 -124.5t-218.5 -41.5v70q121 0 174 23.5zM2009 585q60 0 99 -4l-13 -62
q-50 5 -99 5q-112 0 -195 -16l-11 60q96 17 219 17zM390 483l3 -86l-86 -8l-12 86z" />
    <glyph glyph-name="tomaan.001" unicode="&#x621;&#x62a;&#x621;&#x621;" horiz-adv-x="1833" 
d="M109 178q0 -98 61 -154t168 -56q85 0 142.5 31.5t85 80t27.5 98.5q0 72 -82 343l-9 29l42 75l209 51q12 3 21 3q39 0 42 -46q7 -135 14 -350q2 -38 2 -49q2 -69 9.5 -101.5t32 -47.5t78.5 -15l-2 -70q-75 0 -112.5 23.5t-51.5 71t-17 133.5l-3 99q-4 204 -10 285
l-197 -46l14 -47q32 -102 54 -190t22 -151q0 -69 -36.5 -133.5t-107 -106t-167.5 -41.5q-95 0 -160 38.5t-96.5 100t-31.5 131.5q0 60 19 125.5t45 118.5l55 -26q-60 -117 -60 -207zM1406 0h-74q-69 1 -119.5 20.5t-89.5 59.5q-28 -39 -69 -59.5t-89 -20.5h-18v70h19
q43 0 79 23t60 67q4 6 19 37q29 56 48.5 88t46 54t58.5 22q56 0 96.5 -45.5t63 -112.5t26.5 -133h40v-70h-41q-12 -104 -102 -164.5t-251 -74.5l-19 63q288 25 316 176zM1227 89.5q43 -18.5 100 -18.5q26 -1 78 -1q-1 50 -15 102t-42.5 87.5t-69.5 35.5q-32 0 -55.5 -33
t-55.5 -101l-11 -22q28 -31 71 -49.5zM1670 93q55 23 59 71q-1 41 -19.5 102t-35.5 95l51 27q20 -41 39 -107.5t19 -114.5q0 -83 -69 -124.5t-219 -41.5v70q120 0 175 23zM1534.5 593q74.5 8 140.5 8q32 0 46 -1l-11 -63q-34 2 -53 2q-60 0 -126 -7.5t-115 -18.5l-12 59
q56 13 130.5 21zM390 488l3 -86l-86 -8l-12 86z" />
    <glyph glyph-name="tomaan.002" unicode="&#x621;&#x62a;&#x621;&#x621;&#x621;" horiz-adv-x="1526" 
d="M1080 32q75 38 92 94h-51q-113 0 -190 60q-24 -31 -54 -46.5t-71 -15.5q-44 0 -69.5 14t-39 48t-15.5 97q-8 210 -15 308l-166 -40q26 -67 48 -153.5t22 -162.5q0 -63 -30 -122t-90 -96.5t-146 -37.5t-143.5 36.5t-84.5 94t-27 119.5q0 50 11 90t30 79l53 -29
q-17 -39 -25 -69.5t-8 -70.5q0 -77 46.5 -128.5t147.5 -51.5q68 0 115 28t70 71.5t23 88.5q-1 64 -23 150t-47 143l37 76l188 45q10 2 15 2q19 0 30.5 -13t13.5 -35q4 -46 12 -255q2 -64 2 -61q2 -38 8.5 -58.5t19.5 -28.5t38 -8q38 0 61 15.5t40 53.5l14 30
q23 52 40.5 83.5t43.5 54t60 22.5q52 0 88.5 -39.5t56 -100t25.5 -124.5q72 0 111 9.5t54 27.5t15 48q0 33 -14 81.5t-31 87.5l54 27q51 -126 51 -196q0 -79 -61 -112t-182 -35q-17 -92 -104 -144t-208 -63l-24 64q108 10 183 48zM1143.5 326q-28.5 57 -72.5 57
q-36 0 -63 -44t-46 -95q60 -51 159 -51l56 -1q-5 77 -33.5 134zM246 497l88 7l3 -81l-80 -8zM1258 661q60 6 116 6q41 0 60 -2l-5 -64q-18 2 -57 2q-51 0 -107 -6t-99 -15l-14 62q46 11 106 17z" />
    <glyph glyph-name="tomaan.003" unicode="&#x621;&#x62a;&#x621;&#x621;&#x621;&#x621;" horiz-adv-x="1298" 
d="M856.5 29q72.5 39 89.5 96h-50q-114 0 -190 61q-24 -30 -55 -44.5t-77 -14.5h-57l21 63h40q39 1 63 18t42 55l12 26q23 52 40.5 84.5t44 56t60.5 23.5q52 0 88.5 -40t56.5 -100t25 -124q71 0 109.5 9.5t54 27.5t15.5 48q0 33 -14.5 81t-31.5 88l54 27q51 -126 51 -196
q0 -79 -60.5 -112t-179.5 -35q-17 -92 -102 -146.5t-204 -64.5l-24 65q106 9 178.5 48zM917.5 326q-28.5 57 -71.5 57q-57 0 -110 -139q58 -51 160 -51l56 -1q-6 77 -34.5 134zM161.5 15.5q-57.5 36.5 -84.5 94t-27 119.5q0 50 11 90t30 79l53 -29q-17 -39 -25 -69.5
t-8 -70.5q0 -77 46.5 -128.5t147.5 -51.5q69 0 116.5 27t70.5 68.5t21 84.5q-6 70 -40 188l56 25q42 -136 42 -227q0 -60 -31 -114t-91 -88t-144 -34q-86 0 -143.5 36.5zM256 513l88 8l3 -82l-81 -7zM1014 637q60 6 116 6q41 0 59 -2l-4 -64q-18 2 -57 2q-51 0 -107 -6
t-99 -15l-14 62q46 11 106 17z" />
    <glyph glyph-name="uni0621" unicode="&#x621;" horiz-adv-x="410" arabic-form="isolated" 
d="M239 44q-39 0 -73 18.5t-54 49.5t-20 68q0 36 18.5 67.5t50 50t68.5 18.5q42 0 96 -23l-17 -50q-49 18 -79 18q-37 0 -63.5 -23.5t-26.5 -56.5t29.5 -58.5t71.5 -25.5q16 0 31 4l9 -52q-17 -5 -41 -5zM39 24l321 106l10 -53l-321 -106z" />
    <glyph glyph-name="uni0627" unicode="&#x627;" horiz-adv-x="221" arabic-form="isolated" 
d="M86 190q0 139 -5 289.5t-11 188.5l63 13q6 -39 12 -189.5t6 -288.5q0 -143 -7 -206l-63 8q5 48 5 185z" />
    <glyph glyph-name="uni0627.fina" unicode="&#x627;" horiz-adv-x="262" arabic-form="final" 
d="M144.5 506q4.5 -130 4.5 -232v-40q-1 -15 -1 -42q0 -47 8.5 -72.5t33 -37.5t72.5 -12h5l3 -35l-3 -35h-5q-73 0 -112 24t-52.5 72.5t-11.5 131.5q1 93 -3.5 241.5t-12.5 198.5l63 13q7 -45 11.5 -175z" />
    <glyph glyph-name="uni0623" unicode="&#x623;" horiz-adv-x="231" arabic-form="isolated" 
d="M91 171q0 118 -5 243.5t-11 164.5l63 13q6 -40 12 -169t6 -248q0 -113 -6 -178l-64 8q5 48 5 166zM74 690q-29 26 -29 62q0 30 19 55.5t49 32.5q12 3 25 3q16 0 34 -4.5t32 -8.5l-11 -43q-34 12 -54 12q-28 0 -44.5 -17.5t-11.5 -38.5q3 -16 22.5 -29t45.5 -13l-7 -41
q-41 4 -70 30zM16 660l210 69v-44l-210 -68v43z" />
    <glyph glyph-name="uni0623.fina" unicode="&#x623;" horiz-adv-x="273" arabic-form="final" 
d="M156.5 455q4.5 -91 4.5 -169l-1 -52l-1 -36q0 -50 8.5 -76.5t32.5 -39t73 -12.5h5l4 -35l-4 -35h-5q-73 0 -111.5 24t-52.5 72.5t-12 131.5v43q0 83 -4.5 172t-11.5 136l64 13q7 -46 11.5 -137zM97 688q-29 26 -29 62q0 30 19 55.5t49 32.5q12 3 25 3q16 0 34 -4.5
t32 -8.5l-11 -43q-34 12 -54 12q-28 0 -44.5 -17.5t-11.5 -38.5q3 -16 22.5 -29t45.5 -13l-7 -41q-41 4 -70 30zM39 658l210 69v-44l-210 -68v43z" />
    <glyph glyph-name="uni0625" unicode="&#x625;" horiz-adv-x="221" arabic-form="isolated" 
d="M86 190q0 139 -5 289.5t-11 188.5l63 13q6 -39 12 -189.5t6 -288.5q0 -143 -7 -206l-63 8q5 48 5 185zM65 -212q-29 26 -29 62q0 30 19 55.5t49 32.5q12 3 25 3q16 0 34 -4.5t32 -8.5l-11 -43q-34 12 -54 12q-28 0 -44.5 -17.5t-11.5 -38.5q3 -16 22.5 -29t45.5 -13
l-7 -41q-41 4 -70 30zM7 -242l210 69v-44l-210 -68v43z" />
    <glyph glyph-name="uni0625.fina" unicode="&#x625;" horiz-adv-x="262" arabic-form="final" 
d="M144.5 506q4.5 -130 4.5 -232v-40q-1 -15 -1 -42q0 -47 8.5 -72.5t33 -37.5t72.5 -12h5l3 -35l-3 -35h-5q-73 0 -112 24t-52.5 72.5t-11.5 131.5q1 93 -3.5 241.5t-12.5 198.5l63 13q7 -45 11.5 -175zM89 -201q-29 26 -29 62q0 30 19 55.5t49 32.5q12 3 25 3
q16 0 34 -4.5t32 -8.5l-11 -43q-34 12 -54 12q-28 0 -44.5 -17.5t-11.5 -38.5q3 -16 22.5 -29t45.5 -13l-7 -41q-41 4 -70 30zM31 -231l210 69v-44l-210 -68v43z" />
    <glyph glyph-name="uni0622" unicode="&#x622;" horiz-adv-x="260" arabic-form="isolated" 
d="M91 171q0 118 -5 243.5t-11 164.5l63 13q6 -40 12 -169t6 -248q0 -113 -6 -178l-64 8q5 48 5 166zM-12 709q25 22 57 22q16 0 29 -3.5t33 -11.5q16 -7 27.5 -10.5t24.5 -3.5q19 0 39 11t33 30l29 -25q-19 -28 -46 -44.5t-55 -16.5q-17 0 -30.5 4t-31.5 12
q-16 7 -27.5 10.5t-25.5 3.5q-20 0 -37.5 -15.5t-27.5 -43.5l-33 17q17 42 42 64z" />
    <glyph glyph-name="uni0622.fina" unicode="&#x622;" horiz-adv-x="273" arabic-form="final" 
d="M156.5 455q4.5 -91 4.5 -169l-1 -52l-1 -36q0 -50 8.5 -76.5t32.5 -39t73 -12.5h5l4 -35l-4 -35h-5q-73 0 -111.5 24t-52.5 72.5t-12 131.5v43q0 83 -4.5 172t-11.5 136l64 13q7 -46 11.5 -137zM13 709q25 22 57 22q16 0 29 -3.5t33 -11.5q16 -7 27.5 -10.5t24.5 -3.5
q19 0 39 11t33 30l29 -25q-19 -28 -46 -44.5t-55 -16.5q-17 0 -30.5 4t-31.5 12q-16 7 -27.5 10.5t-25.5 3.5q-20 0 -37.5 -15.5t-27.5 -43.5l-33 17q17 42 42 64z" />
    <glyph glyph-name="uni0671" unicode="&#x671;" horiz-adv-x="231" arabic-form="isolated" 
d="M91 171q0 118 -5 243.5t-11 164.5l63 13q6 -40 12 -169t6 -248q0 -113 -6 -178l-64 8q5 48 5 166zM-10 696q21 14 44 14q12 0 26.5 -4.5t20.5 -6.5q16 -5 34 -9t34 -4q7 0 21 2q26 5 42 17.5t17 26.5q0 11 -12 20t-29 9q-30 0 -59 -23.5t-49 -63.5l-30 18q25 51 62 81
t77 30q31 0 52.5 -19.5t21.5 -49.5q0 -37 -33.5 -63t-81.5 -26q-38 0 -78 14q-25 7 -35 7q-8 0 -12 -1q-11 -1 -18.5 -7t-12.5 -12t-7 -8l-30 20q14 24 35 38z" />
    <glyph glyph-name="uni0671.fina" unicode="&#x671;" horiz-adv-x="273" arabic-form="final" 
d="M156.5 455q4.5 -91 4.5 -169l-1 -52l-1 -36q0 -50 8.5 -76.5t32.5 -39t73 -12.5h5l4 -35l-4 -35h-5q-73 0 -111.5 24t-52.5 72.5t-12 131.5v43q0 83 -4.5 172t-11.5 136l64 13q7 -46 11.5 -137zM32 697q21 14 44 14q12 0 26.5 -4.5t20.5 -6.5q16 -5 34 -9t34 -4q7 0 21 2
q26 5 42 17.5t17 26.5q0 11 -12 20t-29 9q-30 0 -59 -23.5t-49 -63.5l-30 18q25 51 62 81t77 30q31 0 52.5 -19.5t21.5 -49.5q0 -37 -33.5 -63t-81.5 -26q-38 0 -78 14q-25 7 -35 7q-8 0 -12 -1q-11 -1 -18.5 -7t-12.5 -12t-7 -8l-30 20q14 24 35 38z" />
    <glyph glyph-name="uni066E.init" unicode="&#x66e;" horiz-adv-x="311" 
d="M-5 70h52q84 0 122.5 24t38.5 74q-1 34 -20 95.5t-34 94.5l57 30q19 -40 39 -108t20 -115q-1 -82 -58.5 -123.5t-164.5 -41.5h-52v70z" />
    <glyph glyph-name="uni066E.medi" unicode="&#x66e;" horiz-adv-x="338" 
d="M-5 70h7q72 1 111 16t55 48q8 17 8 53q0 43 -11 111l59 12q8 -43 10.5 -93t1.5 -69q6 -38 32 -58t66 -20h9l4 -35l-4 -35h-9q-52 0 -90 29t-48 77h19q-17 -57 -69 -81.5t-144 -24.5h-7v70z" />
    <glyph glyph-name="uni066E.fina" unicode="&#x66e;" horiz-adv-x="936" 
d="M407 27q0 23 1 35q177 0 269.5 49.5t125.5 157.5l61 -7q-18 -54 -18 -95q0 -46 23.5 -71t71.5 -25l4 -36l-4 -35q-69 0 -110.5 43.5t-36.5 116.5h15q-51 -88 -151 -128.5t-250 -40.5q-1 12 -1 36zM101 204q0 -13 1 -20q8 -59 86.5 -91t224.5 -31q2 -24 2 -35
q0 -12 -2 -36q-171 -1 -267 46.5t-105 137.5q-1 8 -1 24q0 41 10.5 84.5t25.5 77.5l55 -27q-30 -80 -30 -130z" />
    <glyph glyph-name="uni0628" unicode="&#x628;" horiz-adv-x="814" arabic-form="isolated" 
d="M404 21q0 27 1 41q93 0 161.5 14.5t106 35.5t42.5 41q-3 38 -24 107t-33 97l57 31q18 -40 38.5 -115t20.5 -116q0 -49 -47.5 -87t-131.5 -58.5t-190 -20.5q-1 10 -1 30zM101 204q0 -13 1 -20q8 -59 86.5 -91t224.5 -31q2 -24 2 -35q0 -12 -2 -36q-171 -1 -267 46.5
t-105 137.5q-1 8 -1 24q0 41 10.5 84.5t25.5 77.5l55 -27q-30 -80 -30 -130zM344 -163l63 63l63 -63l-63 -63z" />
    <glyph glyph-name="uni0628.fina" unicode="&#x628;" horiz-adv-x="936" arabic-form="final" 
d="M407 27q0 23 1 35q177 0 269.5 49.5t125.5 157.5l61 -7q-18 -54 -18 -95q0 -46 23.5 -71t71.5 -25l4 -36l-4 -35q-69 0 -110.5 43.5t-36.5 116.5h15q-51 -88 -151 -128.5t-250 -40.5q-1 12 -1 36zM101 204q0 -13 1 -20q8 -59 86.5 -91t224.5 -31q2 -24 2 -35
q0 -12 -2 -36q-171 -1 -267 46.5t-105 137.5q-1 8 -1 24q0 41 10.5 84.5t25.5 77.5l55 -27q-30 -80 -30 -130zM367 -164l63 63l63 -63l-63 -63z" />
    <glyph glyph-name="uni0628.medi" unicode="&#x628;" horiz-adv-x="338" arabic-form="medial" 
d="M-5 70h7q72 1 111 16t55 48q8 17 8 53q0 43 -11 111l59 12q8 -43 10.5 -93t1.5 -69q6 -38 32 -58t66 -20h9l4 -35l-4 -35h-9q-52 0 -90 29t-48 77h19q-17 -57 -69 -81.5t-144 -24.5h-7v70zM-4 -162l63 63l63 -63l-63 -63z" />
    <glyph glyph-name="uni0628.init" unicode="&#x628;" horiz-adv-x="311" arabic-form="initial" 
d="M-5 70h52q84 0 122.5 24t38.5 74q-1 34 -20 95.5t-34 94.5l57 30q19 -40 39 -108t20 -115q-1 -82 -58.5 -123.5t-164.5 -41.5h-52v70zM6 -162l63 63l63 -63l-63 -63z" />
    <glyph glyph-name="uni067E" unicode="&#x67e;" horiz-adv-x="814" arabic-form="isolated" 
d="M404 21q0 27 1 41q93 0 161.5 14.5t106 35.5t42.5 41q-3 38 -24 107t-33 97l57 31q18 -40 38.5 -115t20.5 -116q0 -49 -47.5 -87t-131.5 -58.5t-190 -20.5q-1 10 -1 30zM101 204q0 -13 1 -20q8 -59 86.5 -91t224.5 -31q2 -24 2 -35q0 -12 -2 -36q-171 -1 -267 46.5
t-105 137.5q-1 8 -1 24q0 41 10.5 84.5t25.5 77.5l55 -27q-30 -80 -30 -130zM493 -77l21 -21l40 -40l-61 -60l-60 60zM320 -77l21 -21l40 -40l-61 -60l-60 60zM407 -184l54 -55l-54 -55l-54 55z" />
    <glyph glyph-name="uni067E.fina" unicode="&#x67e;" horiz-adv-x="936" arabic-form="final" 
d="M407 27q0 23 1 35q177 0 269.5 49.5t125.5 157.5l61 -7q-18 -54 -18 -95q0 -46 23.5 -71t71.5 -25l4 -36l-4 -35q-69 0 -110.5 43.5t-36.5 116.5h15q-51 -88 -151 -128.5t-250 -40.5q-1 12 -1 36zM101 204q0 -13 1 -20q8 -59 86.5 -91t224.5 -31q2 -24 2 -35
q0 -12 -2 -36q-171 -1 -267 46.5t-105 137.5q-1 8 -1 24q0 41 10.5 84.5t25.5 77.5l55 -27q-30 -80 -30 -130zM515 -76l21 -21l40 -40l-61 -60l-60 60zM342 -76l21 -21l40 -40l-61 -60l-60 60zM429 -183l54 -55l-54 -55l-54 55z" />
    <glyph glyph-name="uni067E.medi" unicode="&#x67e;" horiz-adv-x="390" arabic-form="medial" 
d="M-5 70h7q79 0 122.5 7t64.5 20t32 36q8 17 8 53q0 44 -11 112l59 12q8 -43 10.5 -93t1.5 -69q6 -39 31 -58.5t67 -19.5h9l3 -35l-3 -35h-9q-52 0 -90.5 29t-48.5 77h20q-11 -41 -40.5 -64t-83 -32.5t-142.5 -9.5h-7v70zM182 -77l21 -21l40 -40l-61 -60l-60 60zM9 -77
l21 -21l40 -40l-61 -60l-60 60zM96 -184l54 -55l-54 -55l-54 55z" />
    <glyph glyph-name="uni067E.init" unicode="&#x67e;" horiz-adv-x="339" arabic-form="initial" 
d="M-6 70h38q110 0 157 23t47 73q0 33 -19 95t-34 97l57 30q19 -41 38.5 -106t19.5 -112q0 -170 -259 -170h-45v70zM176 -76l21 -21l40 -40l-61 -60l-60 60zM3 -76l21 -21l40 -40l-61 -60l-60 60zM90 -183l54 -55l-54 -55l-54 55z" />
    <glyph glyph-name="uni062A" unicode="&#x62a;" horiz-adv-x="814" arabic-form="isolated" 
d="M404 21q0 27 1 41q93 0 161.5 14.5t106 35.5t42.5 41q-3 38 -24 107t-33 97l57 31q18 -40 38.5 -115t20.5 -116q0 -49 -47.5 -87t-131.5 -58.5t-190 -20.5q-1 10 -1 30zM101 204q0 -13 1 -20q8 -59 86.5 -91t224.5 -31q2 -24 2 -35q0 -12 -2 -36q-171 -1 -267 46.5
t-105 137.5q-1 8 -1 24q0 41 10.5 84.5t25.5 77.5l55 -27q-30 -80 -30 -130zM324 390l60 -61l-60 -60l-20 20l-40 40zM489 390l60 -61l-60 -60l-20 20l-40 40z" />
    <glyph glyph-name="uni062A.fina" unicode="&#x62a;" horiz-adv-x="936" arabic-form="final" 
d="M407 27q0 23 1 35q177 0 269.5 49.5t125.5 157.5l61 -7q-18 -54 -18 -95q0 -46 23.5 -71t71.5 -25l4 -36l-4 -35q-69 0 -110.5 43.5t-36.5 116.5h15q-51 -88 -151 -128.5t-250 -40.5q-1 12 -1 36zM101 204q0 -13 1 -20q8 -59 86.5 -91t224.5 -31q2 -24 2 -35
q0 -12 -2 -36q-171 -1 -267 46.5t-105 137.5q-1 8 -1 24q0 41 10.5 84.5t25.5 77.5l55 -27q-30 -80 -30 -130zM352 391l60 -61l-60 -60l-20 20l-40 40zM517 391l60 -61l-60 -60l-20 20l-40 40z" />
    <glyph glyph-name="uni062A.medi" unicode="&#x62a;" horiz-adv-x="390" arabic-form="medial" 
d="M-5 70h7q79 0 122.5 7t64.5 20t32 36q8 17 8 53q0 44 -11 112l59 12q8 -43 10.5 -93t1.5 -69q6 -39 31 -58.5t67 -19.5h9l3 -35l-3 -35h-9q-52 0 -90.5 29t-48.5 77h20q-11 -41 -40.5 -64t-83 -32.5t-142.5 -9.5h-7v70zM91 519l60 -61l-60 -60l-20 20l-40 40zM256 519
l60 -61l-60 -60l-20 20l-40 40z" />
    <glyph glyph-name="uni062A.init" unicode="&#x62a;" horiz-adv-x="339" arabic-form="initial" 
d="M-6 70h38q110 0 157 23t47 73q0 33 -19 95t-34 97l57 30q19 -41 38.5 -106t19.5 -112q0 -170 -259 -170h-45v70zM89 579l60 -61l-60 -60l-20 20l-40 40zM254 579l60 -61l-60 -60l-20 20l-40 40z" />
    <glyph glyph-name="uni062B" unicode="&#x62b;" horiz-adv-x="814" arabic-form="isolated" 
d="M404 21q0 27 1 41q93 0 161.5 14.5t106 35.5t42.5 41q-3 38 -24 107t-33 97l57 31q18 -40 38.5 -115t20.5 -116q0 -49 -47.5 -87t-131.5 -58.5t-190 -20.5q-1 10 -1 30zM101 204q0 -13 1 -20q8 -59 86.5 -91t224.5 -31q2 -24 2 -35q0 -12 -2 -36q-171 -1 -267 46.5
t-105 137.5q-1 8 -1 24q0 41 10.5 84.5t25.5 77.5l55 -27q-30 -80 -30 -130zM409 498l54 -55l-54 -55l-54 55zM497 399l21 -21l40 -40l-61 -60l-60 60zM320 399l21 -21l40 -40l-61 -60l-60 60z" />
    <glyph glyph-name="uni062B.fina" unicode="&#x62b;" horiz-adv-x="936" arabic-form="final" 
d="M407 27q0 23 1 35q177 0 269.5 49.5t125.5 157.5l61 -7q-18 -54 -18 -95q0 -46 23.5 -71t71.5 -25l4 -36l-4 -35q-69 0 -110.5 43.5t-36.5 116.5h15q-51 -88 -151 -128.5t-250 -40.5q-1 12 -1 36zM101 204q0 -13 1 -20q8 -59 86.5 -91t224.5 -31q2 -24 2 -35
q0 -12 -2 -36q-171 -1 -267 46.5t-105 137.5q-1 8 -1 24q0 41 10.5 84.5t25.5 77.5l55 -27q-30 -80 -30 -130zM435 494l54 -55l-54 -55l-54 55zM523 395l21 -21l40 -40l-61 -60l-60 60zM346 395l21 -21l40 -40l-61 -60l-60 60z" />
    <glyph glyph-name="uni062B.medi" unicode="&#x62b;" horiz-adv-x="390" arabic-form="medial" 
d="M-5 70h7q79 0 122.5 7t64.5 20t32 36q8 17 8 53q0 44 -11 112l59 12q8 -43 10.5 -93t1.5 -69q6 -39 31 -58.5t67 -19.5h9l3 -35l-3 -35h-9q-52 0 -90.5 29t-48.5 77h20q-11 -41 -40.5 -64t-83 -32.5t-142.5 -9.5h-7v70zM167 624l54 -55l-54 -55l-54 55zM255 525l21 -21
l40 -40l-61 -60l-60 60zM78 525l21 -21l40 -40l-61 -60l-60 60z" />
    <glyph glyph-name="uni062B.init" unicode="&#x62b;" horiz-adv-x="339" arabic-form="initial" 
d="M-6 70h38q110 0 157 23t47 73q0 33 -19 95t-34 97l57 30q19 -41 38.5 -106t19.5 -112q0 -170 -259 -170h-45v70zM180 682l54 -55l-54 -55l-54 55zM268 583l21 -21l40 -40l-61 -60l-60 60zM91 583l21 -21l40 -40l-61 -60l-60 60z" />
    <glyph glyph-name="uni0679" unicode="&#x679;" horiz-adv-x="814" arabic-form="isolated" 
d="M404 21q0 27 1 41q93 0 161.5 14.5t106 35.5t42.5 41q-3 38 -24 107t-33 97l57 31q18 -40 38.5 -115t20.5 -116q0 -49 -47.5 -87t-131.5 -58.5t-190 -20.5q-1 10 -1 30zM101 204q0 -13 1 -20q8 -59 86.5 -91t224.5 -31q2 -24 2 -35q0 -12 -2 -36q-171 -1 -267 46.5
t-105 137.5q-1 8 -1 24q0 41 10.5 84.5t25.5 77.5l55 -27q-30 -80 -30 -130zM404 342q52 0 76.5 14t25.5 31q2 13 -7 21.5t-27 8.5q-30 0 -61 -29.5t-54 -71.5l-31 21q29 52 66.5 87.5t77.5 35.5q33 0 53 -22t20 -50q0 -22 -16 -42.5t-48 -34t-78 -13.5q-34 0 -65 8t-49 16
l15 39q51 -19 102 -19zM356 399q0 45 -12 136l37 6q5 -32 9 -74t4 -71l-1 -24l-38 5z" />
    <glyph glyph-name="uni0679.fina" unicode="&#x679;" horiz-adv-x="936" arabic-form="final" 
d="M407 27q0 23 1 35q177 0 269.5 49.5t125.5 157.5l61 -7q-18 -54 -18 -95q0 -46 23.5 -71t71.5 -25l4 -36l-4 -35q-69 0 -110.5 43.5t-36.5 116.5h15q-51 -88 -151 -128.5t-250 -40.5q-1 12 -1 36zM101 204q0 -13 1 -20q8 -59 86.5 -91t224.5 -31q2 -24 2 -35
q0 -12 -2 -36q-171 -1 -267 46.5t-105 137.5q-1 8 -1 24q0 41 10.5 84.5t25.5 77.5l55 -27q-30 -80 -30 -130zM438 334q54 0 78 15t24 34q0 12 -9 19t-26 7q-29 0 -60 -29t-55 -72l-31 21q29 52 66.5 87.5t77.5 35.5q34 0 53.5 -22t19.5 -50q0 -22 -16 -42.5t-48 -34
t-78 -13.5q-33 0 -64.5 8t-49.5 16l15 39q53 -19 103 -19zM389 391q0 27 -3.5 66.5t-8.5 69.5l37 6q5 -29 9 -71.5t4 -73.5q0 -17 -1 -24l-38 5q1 6 1 22z" />
    <glyph glyph-name="uni0679.medi" unicode="&#x679;" horiz-adv-x="390" arabic-form="medial" 
d="M-5 70h7q79 0 122.5 7t64.5 20t32 36q8 17 8 53q0 44 -11 112l59 12q8 -43 10.5 -93t1.5 -69q6 -39 31 -58.5t67 -19.5h9l3 -35l-3 -35h-9q-52 0 -90.5 29t-48.5 77h20q-11 -41 -40.5 -64t-83 -32.5t-142.5 -9.5h-7v70zM137 397q52 0 76.5 13.5t25.5 31.5q2 12 -6.5 21
t-26.5 9q-30 0 -61 -29t-55 -72l-31 21q29 52 66.5 87.5t77.5 35.5q33 0 53 -22t20 -50q0 -22 -16 -42.5t-48 -34t-79 -13.5q-33 0 -64 8t-49 16l15 39q53 -19 102 -19zM89 453q0 27 -3.5 67t-8.5 70l37 6q5 -29 9 -71.5t4 -73.5q0 -18 -1 -24l-38 5q1 6 1 21z" />
    <glyph glyph-name="uni0679.init" unicode="&#x679;" horiz-adv-x="339" arabic-form="initial" 
d="M-6 70h38q110 0 157 23t47 73q0 33 -19 95t-34 97l57 30q19 -41 38.5 -106t19.5 -112q0 -170 -259 -170h-45v70zM124 479q52 0 76.5 13.5t25.5 31.5q2 12 -6.5 21t-26.5 9q-30 0 -61 -29t-55 -72l-31 21q29 52 66.5 87.5t77.5 35.5q33 0 53 -22t20 -50q0 -22 -16 -42.5
t-48 -34t-79 -13.5q-33 0 -64 8t-49 16l15 39q53 -19 102 -19zM76 535q0 27 -3.5 67t-8.5 70l37 6q5 -29 9 -71.5t4 -73.5q0 -18 -1 -24l-38 5q1 6 1 21z" />
    <glyph glyph-name="uni062C" unicode="&#x62c;" horiz-adv-x="683" arabic-form="isolated" 
d="M534.5 -328q-70.5 -21 -174.5 -21q-90 0 -163 33.5t-115 93.5t-42 138q0 106 67 185.5t193 122.5t298 43l40 -1l-3 -47q-63 28 -156 91q-69 49 -116 72t-95 24q-44 -1 -80 -26.5t-55 -64.5l-44 30q31 61 76.5 94.5t101.5 33.5q57 0 110 -27t133 -84q48 -36 78 -55t62 -31
l-8 -66q-165 1 -285.5 -35t-185.5 -101.5t-68 -150.5q-1 -58 32 -104t94 -72t139 -26q85 0 150.5 16.5t104.5 32.5l23 -56q-41 -21 -111.5 -42zM309 -45l63 63l63 -63l-63 -63z" />
    <glyph glyph-name="uni062C.fina" unicode="&#x62c;" horiz-adv-x="719" arabic-form="final" 
d="M572 204q0 -63 35 -98.5t100 -35.5h17l4 -35l-4 -35h-17q-87 0 -135 50t-48 137q0 24 5 59l47 2q-4 -21 -4 -44zM534.5 -328q-70.5 -21 -174.5 -21q-90 0 -163 33.5t-115 93.5t-42 138q0 106 67 185.5t193 122.5t298 43l40 -1l-3 -47q-63 28 -156 91q-69 49 -116 72
t-95 24q-44 -1 -80 -26.5t-55 -64.5l-44 30q31 61 76.5 94.5t101.5 33.5q57 0 110 -27t133 -84q48 -36 78 -55t62 -31l-8 -66q-165 1 -285.5 -35t-185.5 -101.5t-68 -150.5q-1 -58 32 -104t94 -72t139 -26q85 0 150.5 16.5t104.5 32.5l23 -56q-41 -21 -111.5 -42zM306 -46
l63 63l63 -63l-63 -63z" />
    <glyph glyph-name="uni062C.medi" unicode="&#x62c;" horiz-adv-x="757" arabic-form="medial" 
d="M762 70l4 -35l-4 -35h-10q-94 1 -149.5 40.5t-74.5 121.5l44 27q11 -55 57.5 -86.5t122.5 -32.5h10zM-6 70h92q127 1 235.5 34.5t218.5 91.5q60 33 117 51l3 -35q-58 4 -108.5 20t-103.5 43q-53 26 -89.5 39t-73.5 13q-43 0 -78 -25.5t-54 -63.5l-44 29q31 62 77 94.5
t101 32.5q42 0 79 -14t105 -48q61 -31 102 -48.5t93 -28.5l2 -62q-19 -6 -45.5 -19t-58.5 -30q-129 -68 -238.5 -106t-239.5 -38h-92v70zM259 -153l63 63l63 -63l-63 -63z" />
    <glyph glyph-name="uni062C.init" unicode="&#x62c;" horiz-adv-x="699" arabic-form="initial" 
d="M-6 70h92q127 1 235.5 34.5t218.5 91.5q60 33 117 51l3 -35q-58 4 -108.5 20t-103.5 43q-53 26 -89.5 39t-73.5 13q-43 0 -78 -25.5t-54 -63.5l-44 29q31 62 77 94.5t101 32.5q42 0 79 -14t105 -48q61 -31 102 -48.5t93 -28.5l2 -62q-19 -6 -45.5 -19t-58.5 -30
q-129 -68 -238.5 -106t-239.5 -38h-92v70zM259 -153l63 63l63 -63l-63 -63z" />
    <glyph glyph-name="uni0686" unicode="&#x686;" horiz-adv-x="683" arabic-form="isolated" 
d="M534.5 -328q-70.5 -21 -174.5 -21q-90 0 -163 33.5t-115 93.5t-42 138q0 106 67 185.5t193 122.5t298 43l40 -1l-3 -47q-63 28 -156 91q-69 49 -116 72t-95 24q-44 -1 -80 -26.5t-55 -64.5l-44 30q31 61 76.5 94.5t101.5 33.5q57 0 110 -27t133 -84q48 -36 78 -55t62 -31
l-8 -66q-165 1 -285.5 -35t-185.5 -101.5t-68 -150.5q-1 -58 32 -104t94 -72t139 -26q85 0 150.5 16.5t104.5 32.5l23 -56q-41 -21 -111.5 -42zM471 42l21 -21l39 -40l-60 -59l-59 59zM300 42l20 -21q21 -19 40 -40l-60 -59l-59 59zM386 -64l53 -55q-17 -17 -53 -54
q-27 28 -54 54z" />
    <glyph glyph-name="uni0686.fina" unicode="&#x686;" horiz-adv-x="719" arabic-form="final" 
d="M572 204q0 -63 35 -98.5t100 -35.5h17l4 -35l-4 -35h-17q-87 0 -135 50t-48 137q0 24 5 59l47 2q-4 -21 -4 -44zM534.5 -328q-70.5 -21 -174.5 -21q-90 0 -163 33.5t-115 93.5t-42 138q0 106 67 185.5t193 122.5t298 43l40 -1l-3 -47q-63 28 -156 91q-69 49 -116 72
t-95 24q-44 -1 -80 -26.5t-55 -64.5l-44 30q31 61 76.5 94.5t101.5 33.5q57 0 110 -27t133 -84q48 -36 78 -55t62 -31l-8 -66q-165 1 -285.5 -35t-185.5 -101.5t-68 -150.5q-1 -58 32 -104t94 -72t139 -26q85 0 150.5 16.5t104.5 32.5l23 -56q-41 -21 -111.5 -42zM471 42
l21 -21l39 -40l-60 -59l-59 59zM300 42l20 -21q21 -19 40 -40l-60 -59l-59 59zM386 -64l53 -55q-17 -17 -53 -54q-27 28 -54 54z" />
    <glyph glyph-name="uni0686.medi" unicode="&#x686;" horiz-adv-x="757" arabic-form="medial" 
d="M762 70l4 -35l-4 -35h-10q-94 1 -149.5 40.5t-74.5 121.5l44 27q11 -55 57.5 -86.5t122.5 -32.5h10zM-6 70h92q127 1 235.5 34.5t218.5 91.5q60 33 117 51l3 -35q-58 4 -108.5 20t-103.5 43q-53 26 -89.5 39t-73.5 13q-43 0 -78 -25.5t-54 -63.5l-44 29q31 62 77 94.5
t101 32.5q42 0 79 -14t105 -48q61 -31 102 -48.5t93 -28.5l2 -62q-19 -6 -45.5 -19t-58.5 -30q-129 -68 -238.5 -106t-239.5 -38h-92v70zM438 -75l21 -21l40 -40l-61 -60l-60 60zM265 -75l21 -21l40 -40l-61 -60l-60 60zM352 -182l54 -55l-54 -55l-54 55z" />
    <glyph glyph-name="uni0686.init" unicode="&#x686;" horiz-adv-x="699" arabic-form="initial" 
d="M-6 70h92q127 1 235.5 34.5t218.5 91.5q60 33 117 51l3 -35q-58 4 -108.5 20t-103.5 43q-53 26 -89.5 39t-73.5 13q-43 0 -78 -25.5t-54 -63.5l-44 29q31 62 77 94.5t101 32.5q42 0 79 -14t105 -48q61 -31 102 -48.5t93 -28.5l2 -62q-19 -6 -45.5 -19t-58.5 -30
q-129 -68 -238.5 -106t-239.5 -38h-92v70zM425 -76l21 -21l40 -40l-61 -60l-60 60zM252 -76l21 -21l40 -40l-61 -60l-60 60zM339 -183l54 -55l-54 -55l-54 55z" />
    <glyph glyph-name="uni062D" unicode="&#x62d;" horiz-adv-x="683" arabic-form="isolated" 
d="M534.5 -328q-70.5 -21 -174.5 -21q-90 0 -163 33.5t-115 93.5t-42 138q0 106 67 185.5t193 122.5t298 43l40 -1l-3 -47q-63 28 -156 91q-69 49 -116 72t-95 24q-44 -1 -80 -26.5t-55 -64.5l-44 30q31 61 76.5 94.5t101.5 33.5q57 0 110 -27t133 -84q48 -36 78 -55t62 -31
l-8 -66q-165 1 -285.5 -35t-185.5 -101.5t-68 -150.5q-1 -58 32 -104t94 -72t139 -26q85 0 150.5 16.5t104.5 32.5l23 -56q-41 -21 -111.5 -42z" />
    <glyph glyph-name="uni062D.fina" unicode="&#x62d;" horiz-adv-x="719" arabic-form="final" 
d="M572 204q0 -63 35 -98.5t100 -35.5h17l4 -35l-4 -35h-17q-87 0 -135 50t-48 137q0 24 5 59l47 2q-4 -21 -4 -44zM534.5 -328q-70.5 -21 -174.5 -21q-90 0 -163 33.5t-115 93.5t-42 138q0 106 67 185.5t193 122.5t298 43l40 -1l-3 -47q-63 28 -156 91q-69 49 -116 72
t-95 24q-44 -1 -80 -26.5t-55 -64.5l-44 30q31 61 76.5 94.5t101.5 33.5q57 0 110 -27t133 -84q48 -36 78 -55t62 -31l-8 -66q-165 1 -285.5 -35t-185.5 -101.5t-68 -150.5q-1 -58 32 -104t94 -72t139 -26q85 0 150.5 16.5t104.5 32.5l23 -56q-41 -21 -111.5 -42z" />
    <glyph glyph-name="uni062D.medi" unicode="&#x62d;" horiz-adv-x="757" arabic-form="medial" 
d="M762 70l4 -35l-4 -35h-10q-94 1 -149.5 40.5t-74.5 121.5l44 27q11 -55 57.5 -86.5t122.5 -32.5h10zM-6 70h92q127 1 235.5 34.5t218.5 91.5q60 33 117 51l3 -35q-58 4 -108.5 20t-103.5 43q-53 26 -89.5 39t-73.5 13q-43 0 -78 -25.5t-54 -63.5l-44 29q31 62 77 94.5
t101 32.5q42 0 79 -14t105 -48q61 -31 102 -48.5t93 -28.5l2 -62q-19 -6 -45.5 -19t-58.5 -30q-129 -68 -238.5 -106t-239.5 -38h-92v70z" />
    <glyph glyph-name="uni062D.init" unicode="&#x62d;" horiz-adv-x="699" arabic-form="initial" 
d="M-6 70h92q127 1 235.5 34.5t218.5 91.5q60 33 117 51l3 -35q-58 4 -108.5 20t-103.5 43q-53 26 -89.5 39t-73.5 13q-43 0 -78 -25.5t-54 -63.5l-44 29q31 62 77 94.5t101 32.5q42 0 79 -14t105 -48q61 -31 102 -48.5t93 -28.5l2 -62q-19 -6 -45.5 -19t-58.5 -30
q-129 -68 -238.5 -106t-239.5 -38h-92v70z" />
    <glyph glyph-name="uni062E" unicode="&#x62e;" horiz-adv-x="683" arabic-form="isolated" 
d="M534.5 -328q-70.5 -21 -174.5 -21q-90 0 -163 33.5t-115 93.5t-42 138q0 106 67 185.5t193 122.5t298 43l40 -1l-3 -47q-63 28 -156 91q-69 49 -116 72t-95 24q-44 -1 -80 -26.5t-55 -64.5l-44 30q31 61 76.5 94.5t101.5 33.5q57 0 110 -27t133 -84q48 -36 78 -55t62 -31
l-8 -66q-165 1 -285.5 -35t-185.5 -101.5t-68 -150.5q-1 -58 32 -104t94 -72t139 -26q85 0 150.5 16.5t104.5 32.5l23 -56q-41 -21 -111.5 -42zM195 643l63 63l63 -63l-63 -63z" />
    <glyph glyph-name="uni062E.fina" unicode="&#x62e;" horiz-adv-x="719" arabic-form="final" 
d="M572 204q0 -63 35 -98.5t100 -35.5h17l4 -35l-4 -35h-17q-87 0 -135 50t-48 137q0 24 5 59l47 2q-4 -21 -4 -44zM534.5 -328q-70.5 -21 -174.5 -21q-90 0 -163 33.5t-115 93.5t-42 138q0 106 67 185.5t193 122.5t298 43l40 -1l-3 -47q-63 28 -156 91q-69 49 -116 72
t-95 24q-44 -1 -80 -26.5t-55 -64.5l-44 30q31 61 76.5 94.5t101.5 33.5q57 0 110 -27t133 -84q48 -36 78 -55t62 -31l-8 -66q-165 1 -285.5 -35t-185.5 -101.5t-68 -150.5q-1 -58 32 -104t94 -72t139 -26q85 0 150.5 16.5t104.5 32.5l23 -56q-41 -21 -111.5 -42zM195 643
l63 63l63 -63l-63 -63z" />
    <glyph glyph-name="uni062E.medi" unicode="&#x62e;" horiz-adv-x="757" arabic-form="medial" 
d="M762 70l4 -35l-4 -35h-10q-94 1 -149.5 40.5t-74.5 121.5l44 27q11 -55 57.5 -86.5t122.5 -32.5h10zM-6 70h92q127 1 235.5 34.5t218.5 91.5q60 33 117 51l3 -35q-58 4 -108.5 20t-103.5 43q-53 26 -89.5 39t-73.5 13q-43 0 -78 -25.5t-54 -63.5l-44 29q31 62 77 94.5
t101 32.5q42 0 79 -14t105 -48q61 -31 102 -48.5t93 -28.5l2 -62q-19 -6 -45.5 -19t-58.5 -30q-129 -68 -238.5 -106t-239.5 -38h-92v70zM214 546l63 63l63 -63l-63 -63z" />
    <glyph glyph-name="uni062E.init" unicode="&#x62e;" horiz-adv-x="699" arabic-form="initial" 
d="M-6 70h92q127 1 235.5 34.5t218.5 91.5q60 33 117 51l3 -35q-58 4 -108.5 20t-103.5 43q-53 26 -89.5 39t-73.5 13q-43 0 -78 -25.5t-54 -63.5l-44 29q31 62 77 94.5t101 32.5q42 0 79 -14t105 -48q61 -31 102 -48.5t93 -28.5l2 -62q-19 -6 -45.5 -19t-58.5 -30
q-129 -68 -238.5 -106t-239.5 -38h-92v70zM214 546l63 63l63 -63l-63 -63z" />
    <glyph glyph-name="uni062F" unicode="&#x62f;" horiz-adv-x="487" arabic-form="isolated" 
d="M136.5 79q37.5 -14 100.5 -14q58 0 95.5 16t48.5 38q6 14 6 29q0 50 -52.5 122t-156.5 151l36 61q110 -84 171 -171.5t61 -161.5q0 -35 -13 -62q-19 -43 -70.5 -66.5t-120.5 -23.5q-77 0 -129.5 20.5t-82.5 46.5l31 52q38 -23 75.5 -37z" />
    <glyph glyph-name="uni062F.fina" unicode="&#x62f;" horiz-adv-x="570" arabic-form="final" 
d="M306 487l137 -324q22 -51 49 -72t71 -21h12l3 -35l-3 -35h-12q-60 0 -102.5 31.5t-72.5 100.5l-139 326zM133 79.5q38 -14.5 93 -14.5q61 0 104 19.5t85 49.5l32 -46q-34 -28 -58.5 -44.5t-65.5 -31.5t-93 -15q-69 0 -116 19.5t-84 47.5l31 52q34 -22 72 -36.5z" />
    <glyph glyph-name="uni0630" unicode="&#x630;" horiz-adv-x="487" arabic-form="isolated" 
d="M136.5 79q37.5 -14 100.5 -14q58 0 95.5 16t48.5 38q6 14 6 29q0 50 -52.5 122t-156.5 151l36 61q110 -84 171 -171.5t61 -161.5q0 -35 -13 -62q-19 -43 -70.5 -66.5t-120.5 -23.5q-77 0 -129.5 20.5t-82.5 46.5l31 52q38 -23 75.5 -37zM136 618l63 63l63 -63l-63 -63z
" />
    <glyph glyph-name="uni0630.fina" unicode="&#x630;" horiz-adv-x="570" arabic-form="final" 
d="M306 487l137 -324q22 -51 49 -72t71 -21h12l3 -35l-3 -35h-12q-60 0 -102.5 31.5t-72.5 100.5l-139 326zM133 79.5q38 -14.5 93 -14.5q61 0 104 19.5t85 49.5l32 -46q-34 -28 -58.5 -44.5t-65.5 -31.5t-93 -15q-69 0 -116 19.5t-84 47.5l31 52q34 -22 72 -36.5zM217 619
l63 63l63 -63l-63 -63z" />
    <glyph glyph-name="uni0688.fina" unicode="&#x688;" horiz-adv-x="570" arabic-form="final" 
d="M306 487l137 -324q22 -51 49 -72t71 -21h12l3 -35l-3 -35h-12q-60 0 -102.5 31.5t-72.5 100.5l-139 326zM133 79.5q38 -14.5 93 -14.5q61 0 104 19.5t85 49.5l32 -46q-34 -28 -58.5 -44.5t-65.5 -31.5t-93 -15q-69 0 -116 19.5t-84 47.5l31 52q34 -22 72 -36.5zM285 599
q52 0 76.5 13.5t25.5 31.5q2 12 -6.5 21t-26.5 9q-30 0 -61 -29t-55 -72l-31 21q29 52 66.5 87.5t77.5 35.5q33 0 53 -22t20 -50q0 -22 -16 -42.5t-48 -34t-79 -13.5q-33 0 -64 8t-49 16l15 39q53 -19 102 -19zM237 655q0 27 -3.5 67t-8.5 70l37 6q5 -29 9 -71.5t4 -73.5
q0 -18 -1 -24l-38 5q1 6 1 21z" />
    <glyph glyph-name="uni0631" unicode="&#x631;" horiz-adv-x="330" arabic-form="isolated" 
d="M116.5 -166.5q52.5 36.5 82.5 79.5t30 82q0 54 -51 254l61 22q21 -72 36 -150.5t15 -125.5q0 -57 -35 -112.5t-95.5 -99.5t-134.5 -68l-25 62q64 20 116.5 56.5z" />
    <glyph glyph-name="uni0631.fina" unicode="&#x631;" horiz-adv-x="361" arabic-form="final" 
d="M269.5 41q-31.5 41 -53.5 118l45 27q15 -63 37 -89t62 -27h6l4 -35l-4 -35h-6q-59 0 -90.5 41zM116.5 -166.5q52.5 36.5 82.5 79.5t30 82q0 54 -51 254l61 22q21 -72 36 -150.5t15 -125.5q0 -57 -35 -112.5t-95.5 -99.5t-134.5 -68l-25 62q64 20 116.5 56.5z" />
    <glyph glyph-name="uni0632" unicode="&#x632;" horiz-adv-x="330" arabic-form="isolated" 
d="M116.5 -166.5q52.5 36.5 82.5 79.5t30 82q0 54 -51 254l61 22q21 -72 36 -150.5t15 -125.5q0 -57 -35 -112.5t-95.5 -99.5t-134.5 -68l-25 62q64 20 116.5 56.5zM128 437l63 63l63 -63l-63 -63z" />
    <glyph glyph-name="uni0632.fina" unicode="&#x632;" horiz-adv-x="361" arabic-form="final" 
d="M269.5 41q-31.5 41 -53.5 118l45 27q15 -63 37 -89t62 -27h6l4 -35l-4 -35h-6q-59 0 -90.5 41zM116.5 -166.5q52.5 36.5 82.5 79.5t30 82q0 54 -51 254l61 22q21 -72 36 -150.5t15 -125.5q0 -57 -35 -112.5t-95.5 -99.5t-134.5 -68l-25 62q64 20 116.5 56.5zM128 437
l63 63l63 -63l-63 -63z" />
    <glyph glyph-name="uni0691.fina" unicode="&#x691;" horiz-adv-x="361" arabic-form="final" 
d="M269.5 41q-31.5 41 -53.5 118l45 27q15 -63 37 -89t62 -27h6l4 -35l-4 -35h-6q-59 0 -90.5 41zM116.5 -166.5q52.5 36.5 82.5 79.5t30 82q0 54 -51 254l61 22q21 -72 36 -150.5t15 -125.5q0 -57 -35 -112.5t-95.5 -99.5t-134.5 -68l-25 62q64 20 116.5 56.5zM219 394
q52 0 76.5 13.5t25.5 31.5q2 12 -6.5 21t-26.5 9q-30 0 -61 -29t-55 -72l-31 21q29 52 66.5 87.5t77.5 35.5q33 0 53 -22t20 -50q0 -22 -16 -42.5t-48 -34t-79 -13.5q-33 0 -64 8t-49 16l15 39q53 -19 102 -19zM171 450q0 27 -3.5 67t-8.5 70l37 6q5 -29 9 -71.5t4 -73.5
q0 -18 -1 -24l-38 5q1 6 1 21z" />
    <glyph glyph-name="uni0695.fina" unicode="&#x695;" horiz-adv-x="361" 
d="M269.5 41q-31.5 41 -53.5 118l45 27q15 -63 37 -89t62 -27h6l4 -35l-4 -35h-6q-59 0 -90.5 41zM116.5 -166.5q52.5 36.5 82.5 79.5t30 82q0 54 -51 254l61 22q21 -72 36 -150.5t15 -125.5q0 -57 -35 -112.5t-95.5 -99.5t-134.5 -68l-25 62q64 20 116.5 56.5zM153 -470
l-34 -14q-10 33 -30.5 72.5t-41.5 69.5l28 26q15 -20 31.5 -49.5t27.5 -58.5q11 31 26.5 63t30.5 54l30 -25q-47 -69 -68 -138z" />
    <glyph glyph-name="uni0698" unicode="&#x698;" horiz-adv-x="374" arabic-form="isolated" 
d="M116.5 -166.5q52.5 36.5 82.5 79.5t30 82q0 54 -51 254l61 22q21 -72 36 -150.5t15 -125.5q0 -57 -35 -112.5t-95.5 -99.5t-134.5 -68l-25 62q64 20 116.5 56.5zM207 598l54 -55l-54 -55l-54 55zM295 499l21 -21l40 -40l-61 -60l-60 60zM118 499l21 -21l40 -40l-61 -60
l-60 60z" />
    <glyph glyph-name="uni0698.fina" unicode="&#x698;" horiz-adv-x="361" arabic-form="final" 
d="M269.5 41q-31.5 41 -53.5 118l45 27q15 -63 37 -89t62 -27h6l4 -35l-4 -35h-6q-59 0 -90.5 41zM116.5 -166.5q52.5 36.5 82.5 79.5t30 82q0 54 -51 254l61 22q21 -72 36 -150.5t15 -125.5q0 -57 -35 -112.5t-95.5 -99.5t-134.5 -68l-25 62q64 20 116.5 56.5zM207 598
l54 -55l-54 -55l-54 55zM295 499l21 -21l40 -40l-61 -60l-60 60zM118 499l21 -21l40 -40l-61 -60l-60 60z" />
    <glyph glyph-name="uni0633" unicode="&#x633;" horiz-adv-x="1168" arabic-form="isolated" 
d="M1050 94.5q21 24.5 21 68.5q0 37 -19 98t-35 96l57 30q20 -43 39 -108.5t19 -115.5q0 -71 -40.5 -117t-103.5 -46h-2v70h2q41 0 62 24.5zM715 0v70h3q57 0 102 75q13 23 21 54.5t17 80.5l58 -4l-3 -20q-10 -48 -10 -83q0 -52 20.5 -77.5t64.5 -25.5h2l3 -35l-3 -35h-2
q-60 0 -93.5 36.5t-37.5 101.5h12q-17 -58 -59 -98t-93 -40h-2zM652 96.5q22 -26.5 68 -26.5l-3 -70q-57 0 -90 46.5t-42 112.5l31 19q14 -55 36 -81.5zM105 -10q0 -97 59.5 -151t166.5 -54q84 0 140.5 31.5t83.5 79.5t27 99q0 49 -13.5 106t-39.5 148l59 26
q29 -97 42 -160.5t13 -119.5q0 -68 -36 -132.5t-106.5 -106t-169.5 -41.5q-95 0 -160.5 39t-97 100.5t-31.5 131.5q0 60 19 125t46 117l54 -26q-56 -118 -56 -212z" />
    <glyph glyph-name="uni0633.fina" unicode="&#x633;" horiz-adv-x="1233" arabic-form="final" 
d="M986 70h2q38 0 69.5 22.5t34.5 51.5l44 -10q-7 -58 -49.5 -96t-98.5 -38h-2v70zM1239 70l4 -35l-4 -35h-5q-53 0 -91.5 29t-57.5 83q-12 36 -37 170l59 15q22 -125 35 -161q11 -33 33 -49.5t59 -16.5h5zM715 0v70h3q57 0 102 75q13 23 21 54.5t17 80.5l58 -4l-3 -20
q-10 -48 -10 -83q0 -52 20.5 -77.5t64.5 -25.5h2l3 -35l-3 -35h-2q-60 0 -93.5 36.5t-37.5 101.5h12q-17 -58 -59 -98t-93 -40h-2zM652 96.5q22 -26.5 68 -26.5l-3 -70q-57 0 -90 46.5t-42 112.5l31 19q14 -55 36 -81.5zM105 -10q0 -97 59.5 -151t166.5 -54q84 0 140.5 31.5
t83.5 79.5t27 99q0 49 -13.5 106t-39.5 148l59 26q29 -97 42 -160.5t13 -119.5q0 -68 -36 -132.5t-106.5 -106t-169.5 -41.5q-95 0 -160.5 39t-97 100.5t-31.5 131.5q0 60 19 125t46 117l54 -26q-56 -118 -56 -212z" />
    <glyph glyph-name="uni0633.medi" unicode="&#x633;" horiz-adv-x="800" arabic-form="medial" 
d="M553 70h2q38 0 69.5 22.5t34.5 51.5l44 -10q-7 -58 -49.5 -96t-98.5 -38h-2v70zM806 70l4 -35l-4 -35h-5q-53 0 -91.5 29t-57.5 83q-12 36 -37 170l59 15q22 -125 35 -161q11 -33 33 -49.5t59 -16.5h5zM283 0v70h3q57 0 102 75q13 23 21 54.5t17 80.5l58 -4l-3 -20
q-10 -48 -10 -83q0 -52 20.5 -77.5t64.5 -25.5h2l3 -35l-3 -35h-2q-60 0 -93.5 36.5t-37.5 101.5h12q-17 -58 -59 -98t-93 -40h-2zM-3 0l-4 35l4 35h5q39 0 72.5 18.5t53.5 49.5q19 27 30 57t24 73l59 -6q-10 -38 -15.5 -64.5t-5.5 -52.5q0 -75 64 -75h1l4 -35l-4 -35h-2
q-48 0 -77.5 29.5t-33.5 78.5q-31 -53 -74.5 -80.5t-96.5 -27.5h-4z" />
    <glyph glyph-name="uni0633.init" unicode="&#x633;" horiz-adv-x="735" arabic-form="initial" 
d="M617 94.5q21 24.5 21 68.5q0 37 -19 98t-35 96l57 30q20 -43 39 -108.5t19 -115.5q0 -71 -40.5 -117t-103.5 -46h-2v70h2q41 0 62 24.5zM283 0v70h3q57 0 102 75q13 23 21 54.5t17 80.5l58 -4l-3 -20q-10 -48 -10 -83q0 -52 20.5 -77.5t64.5 -25.5h2l3 -35l-3 -35h-2
q-60 0 -93.5 36.5t-37.5 101.5h12q-17 -58 -59 -98t-93 -40h-2zM-3 0l-4 35l4 35h5q39 0 72.5 18.5t53.5 49.5q19 27 30 57t24 73l59 -6q-10 -38 -15.5 -64.5t-5.5 -52.5q0 -75 64 -75h1l4 -35l-4 -35h-2q-48 0 -77.5 29.5t-33.5 78.5q-31 -53 -74.5 -80.5t-96.5 -27.5h-4z
" />
    <glyph glyph-name="uni0634" unicode="&#x634;" horiz-adv-x="1168" arabic-form="isolated" 
d="M1050 94.5q21 24.5 21 68.5q0 37 -19 98t-35 96l57 30q20 -43 39 -108.5t19 -115.5q0 -71 -40.5 -117t-103.5 -46h-2v70h2q41 0 62 24.5zM715 0v70h3q57 0 102 75q13 23 21 54.5t17 80.5l58 -4l-3 -20q-10 -48 -10 -83q0 -52 20.5 -77.5t64.5 -25.5h2l3 -35l-3 -35h-2
q-60 0 -93.5 36.5t-37.5 101.5h12q-17 -58 -59 -98t-93 -40h-2zM652 96.5q22 -26.5 68 -26.5l-3 -70q-57 0 -90 46.5t-42 112.5l31 19q14 -55 36 -81.5zM105 -10q0 -97 59.5 -151t166.5 -54q84 0 140.5 31.5t83.5 79.5t27 99q0 49 -13.5 106t-39.5 148l59 26
q29 -97 42 -160.5t13 -119.5q0 -68 -36 -132.5t-106.5 -106t-169.5 -41.5q-95 0 -160.5 39t-97 100.5t-31.5 131.5q0 60 19 125t46 117l54 -26q-56 -118 -56 -212zM877 634l54 -55l-54 -55l-54 55zM965 535l21 -21l40 -40l-61 -60l-60 60zM788 535l21 -21l40 -40l-61 -60
l-60 60z" />
    <glyph glyph-name="uni0634.fina" unicode="&#x634;" horiz-adv-x="1233" arabic-form="final" 
d="M986 70h2q38 0 69.5 22.5t34.5 51.5l44 -10q-7 -58 -49.5 -96t-98.5 -38h-2v70zM1239 70l4 -35l-4 -35h-5q-53 0 -91.5 29t-57.5 83q-12 36 -37 170l59 15q22 -125 35 -161q11 -33 33 -49.5t59 -16.5h5zM715 0v70h3q57 0 102 75q13 23 21 54.5t17 80.5l58 -4l-3 -20
q-10 -48 -10 -83q0 -52 20.5 -77.5t64.5 -25.5h2l3 -35l-3 -35h-2q-60 0 -93.5 36.5t-37.5 101.5h12q-17 -58 -59 -98t-93 -40h-2zM652 96.5q22 -26.5 68 -26.5l-3 -70q-57 0 -90 46.5t-42 112.5l31 19q14 -55 36 -81.5zM105 -10q0 -97 59.5 -151t166.5 -54q84 0 140.5 31.5
t83.5 79.5t27 99q0 49 -13.5 106t-39.5 148l59 26q29 -97 42 -160.5t13 -119.5q0 -68 -36 -132.5t-106.5 -106t-169.5 -41.5q-95 0 -160.5 39t-97 100.5t-31.5 131.5q0 60 19 125t46 117l54 -26q-56 -118 -56 -212zM889 610l54 -55l-54 -55l-54 55zM977 511l21 -21l40 -40
l-61 -60l-60 60zM800 511l21 -21l40 -40l-61 -60l-60 60z" />
    <glyph glyph-name="uni0634.medi" unicode="&#x634;" horiz-adv-x="800" arabic-form="medial" 
d="M553 70h2q38 0 69.5 22.5t34.5 51.5l44 -10q-7 -58 -49.5 -96t-98.5 -38h-2v70zM806 70l4 -35l-4 -35h-5q-53 0 -91.5 29t-57.5 83q-12 36 -37 170l59 15q22 -125 35 -161q11 -33 33 -49.5t59 -16.5h5zM283 0v70h3q57 0 102 75q13 23 21 54.5t17 80.5l58 -4l-3 -20
q-10 -48 -10 -83q0 -52 20.5 -77.5t64.5 -25.5h2l3 -35l-3 -35h-2q-60 0 -93.5 36.5t-37.5 101.5h12q-17 -58 -59 -98t-93 -40h-2zM-3 0l-4 35l4 35h5q39 0 72.5 18.5t53.5 49.5q19 27 30 57t24 73l59 -6q-10 -38 -15.5 -64.5t-5.5 -52.5q0 -75 64 -75h1l4 -35l-4 -35h-2
q-48 0 -77.5 29.5t-33.5 78.5q-31 -53 -74.5 -80.5t-96.5 -27.5h-4zM462 608l54 -55l-54 -55l-54 55zM550 509l21 -21l40 -40l-61 -60l-60 60zM373 509l21 -21l40 -40l-61 -60l-60 60z" />
    <glyph glyph-name="uni0634.init" unicode="&#x634;" horiz-adv-x="735" arabic-form="initial" 
d="M617 94.5q21 24.5 21 68.5q0 37 -19 98t-35 96l57 30q20 -43 39 -108.5t19 -115.5q0 -71 -40.5 -117t-103.5 -46h-2v70h2q41 0 62 24.5zM283 0v70h3q57 0 102 75q13 23 21 54.5t17 80.5l58 -4l-3 -20q-10 -48 -10 -83q0 -52 20.5 -77.5t64.5 -25.5h2l3 -35l-3 -35h-2
q-60 0 -93.5 36.5t-37.5 101.5h12q-17 -58 -59 -98t-93 -40h-2zM-3 0l-4 35l4 35h5q39 0 72.5 18.5t53.5 49.5q19 27 30 57t24 73l59 -6q-10 -38 -15.5 -64.5t-5.5 -52.5q0 -75 64 -75h1l4 -35l-4 -35h-2q-48 0 -77.5 29.5t-33.5 78.5q-31 -53 -74.5 -80.5t-96.5 -27.5h-4z
M454 643l54 -55l-54 -55l-54 55zM542 544l21 -21l40 -40l-61 -60l-60 60zM365 544l21 -21l40 -40l-61 -60l-60 60z" />
    <glyph glyph-name="uni0635" unicode="&#x635;" horiz-adv-x="1255" arabic-form="isolated" 
d="M170.5 -246q-65.5 39 -97 100.5t-31.5 131.5q0 60 19 125t46 117l54 -26q-57 -124 -57 -209q0 -99 60 -153.5t167 -54.5q84 0 140.5 31.5t83.5 79.5t27 99q0 50 -18 117t-43 129l59 28q63 -152 63 -274q0 -68 -36 -132.5t-106.5 -106t-169.5 -41.5q-95 0 -160.5 39z
M676 29q-79 51 -126 167l47 30q27 -68 62 -106.5t86.5 -55t129.5 -16.5q81 0 145 22.5t100 60t36 81.5q0 40 -32.5 68t-84.5 28q-97 0 -180 -85t-136 -182l-49 31q33 64 87.5 134t126.5 120.5t149 50.5q49 0 90 -22t64.5 -59.5t23.5 -83.5q0 -69 -44 -122t-121.5 -82.5
t-173.5 -29.5q-121 0 -200 51z" />
    <glyph glyph-name="uni0635.fina" unicode="&#x635;" horiz-adv-x="1270" arabic-form="final" 
d="M170.5 -246q-65.5 39 -97 100.5t-31.5 131.5q0 60 19 125t46 117l54 -26q-57 -124 -57 -209q0 -99 60 -153.5t167 -54.5q84 0 140.5 31.5t83.5 79.5t27 99q0 50 -18 117t-43 129l59 28q63 -152 63 -274q0 -68 -36 -132.5t-106.5 -106t-169.5 -41.5q-95 0 -160.5 39z
M676 29q-79 51 -126 167l47 30q27 -68 62 -106.5t86.5 -55t129.5 -16.5q81 0 145 22.5t100 60t36 81.5q0 40 -32.5 68t-84.5 28q-97 0 -180 -85t-136 -182l-49 31q33 64 87.5 134t126.5 120.5t149 50.5q49 0 90 -22t64.5 -59.5t23.5 -83.5q0 -69 -44 -122t-121.5 -82.5
t-173.5 -29.5q-121 0 -200 51zM1156.5 65q60.5 5 119.5 5l4 -35l-4 -35q-110 0 -162.5 4t-79.5 21l29 28q33 7 93.5 12z" />
    <glyph glyph-name="uni0635.medi" unicode="&#x635;" horiz-adv-x="866" arabic-form="medial" 
d="M871 70l3 -35l-3 -35h-6q-117 0 -168 4t-79 21l23 20q33 9 100 17t125 8h5zM-6 70h15q53 0 86.5 22.5t53.5 71.5t32 131l57 -12q-6 -37 -6 -68q0 -90 49 -128t148 -38q95 0 169.5 23t116 61.5t41.5 83.5q0 40 -31.5 66.5t-84.5 26.5q-82 0 -167 -74t-158 -206l-50 31
q78 148 177 232t195 84q50 0 91 -20.5t64 -57t23 -81.5q0 -70 -48.5 -124.5t-133.5 -84.5t-193 -30q-119 0 -176.5 38.5t-69.5 101.5q-26 -56 -67.5 -87.5t-118.5 -31.5h-14v70z" />
    <glyph glyph-name="uni0635.init" unicode="&#x635;" horiz-adv-x="855" arabic-form="initial" 
d="M-6 70h15q53 0 86.5 22.5t53.5 71.5t32 131l57 -12q-6 -37 -6 -68q0 -90 49 -128t148 -38q95 0 169.5 23t116 61.5t41.5 83.5q0 40 -31.5 66.5t-84.5 26.5q-82 0 -167 -74t-158 -206l-50 31q78 148 177 232t195 84q50 0 91 -20.5t64 -57t23 -81.5q0 -70 -48.5 -124.5
t-133.5 -84.5t-193 -30q-119 0 -176.5 38.5t-69.5 101.5q-26 -56 -67.5 -87.5t-118.5 -31.5h-14v70z" />
    <glyph glyph-name="uni0636" unicode="&#x636;" horiz-adv-x="1255" arabic-form="isolated" 
d="M170.5 -246q-65.5 39 -97 100.5t-31.5 131.5q0 60 19 125t46 117l54 -26q-57 -124 -57 -209q0 -99 60 -153.5t167 -54.5q84 0 140.5 31.5t83.5 79.5t27 99q0 50 -18 117t-43 129l59 28q63 -152 63 -274q0 -68 -36 -132.5t-106.5 -106t-169.5 -41.5q-95 0 -160.5 39z
M676 29q-79 51 -126 167l47 30q27 -68 62 -106.5t86.5 -55t129.5 -16.5q81 0 145 22.5t100 60t36 81.5q0 40 -32.5 68t-84.5 28q-97 0 -180 -85t-136 -182l-49 31q33 64 87.5 134t126.5 120.5t149 50.5q49 0 90 -22t64.5 -59.5t23.5 -83.5q0 -69 -44 -122t-121.5 -82.5
t-173.5 -29.5q-121 0 -200 51zM941 520l63 63l63 -63l-63 -63z" />
    <glyph glyph-name="uni0636.fina" unicode="&#x636;" horiz-adv-x="1270" arabic-form="final" 
d="M170.5 -246q-65.5 39 -97 100.5t-31.5 131.5q0 60 19 125t46 117l54 -26q-57 -124 -57 -209q0 -99 60 -153.5t167 -54.5q84 0 140.5 31.5t83.5 79.5t27 99q0 50 -18 117t-43 129l59 28q63 -152 63 -274q0 -68 -36 -132.5t-106.5 -106t-169.5 -41.5q-95 0 -160.5 39z
M676 29q-79 51 -126 167l47 30q27 -68 62 -106.5t86.5 -55t129.5 -16.5q81 0 145 22.5t100 60t36 81.5q0 40 -32.5 68t-84.5 28q-97 0 -180 -85t-136 -182l-49 31q33 64 87.5 134t126.5 120.5t149 50.5q49 0 90 -22t64.5 -59.5t23.5 -83.5q0 -69 -44 -122t-121.5 -82.5
t-173.5 -29.5q-121 0 -200 51zM1156.5 65q60.5 5 119.5 5l4 -35l-4 -35q-110 0 -162.5 4t-79.5 21l29 28q33 7 93.5 12zM941 520l63 63l63 -63l-63 -63z" />
    <glyph glyph-name="uni0636.medi" unicode="&#x636;" horiz-adv-x="866" arabic-form="medial" 
d="M871 70l3 -35l-3 -35h-6q-117 0 -168 4t-79 21l23 20q33 9 100 17t125 8h5zM-6 70h15q53 0 86.5 22.5t53.5 71.5t32 131l57 -12q-6 -37 -6 -68q0 -90 49 -128t148 -38q95 0 169.5 23t116 61.5t41.5 83.5q0 40 -31.5 66.5t-84.5 26.5q-82 0 -167 -74t-158 -206l-50 31
q78 148 177 232t195 84q50 0 91 -20.5t64 -57t23 -81.5q0 -70 -48.5 -124.5t-133.5 -84.5t-193 -30q-119 0 -176.5 38.5t-69.5 101.5q-26 -56 -67.5 -87.5t-118.5 -31.5h-14v70zM541 510l63 63l63 -63l-63 -63z" />
    <glyph glyph-name="uni0636.init" unicode="&#x636;" horiz-adv-x="855" arabic-form="initial" 
d="M-6 70h15q53 0 86.5 22.5t53.5 71.5t32 131l57 -12q-6 -37 -6 -68q0 -90 49 -128t148 -38q95 0 169.5 23t116 61.5t41.5 83.5q0 40 -31.5 66.5t-84.5 26.5q-82 0 -167 -74t-158 -206l-50 31q78 148 177 232t195 84q50 0 91 -20.5t64 -57t23 -81.5q0 -70 -48.5 -124.5
t-133.5 -84.5t-193 -30q-119 0 -176.5 38.5t-69.5 101.5q-26 -56 -67.5 -87.5t-118.5 -31.5h-14v70zM541 510l63 63l63 -63l-63 -63z" />
    <glyph glyph-name="uni0637" unicode="&#x637;" horiz-adv-x="751" arabic-form="isolated" 
d="M170.5 80q76.5 -16 161.5 -16q92 0 165.5 23t114 61.5t40.5 83.5q0 40 -31 66t-83 26q-83 0 -170.5 -76.5t-164.5 -214.5l-50 31q83 153 183.5 240.5t196.5 88.5q51 0 91.5 -21t63.5 -57.5t23 -82.5q0 -70 -49 -124t-135 -84t-194 -30q-89 0 -171 17.5t-142 45.5l22 64
q52 -25 128.5 -41zM237 292q0 98 -8.5 215.5t-15.5 159.5l64 14q7 -41 14 -138.5t7 -192.5q0 -96 -8 -157l-58 -13q5 52 5 112z" />
    <glyph glyph-name="uni0637.fina" unicode="&#x637;" horiz-adv-x="754" arabic-form="final" 
d="M624 64.5q89 6.5 137 5.5l3 -35l-4 -35q-98 0 -178.5 7t-108.5 20l27 24q35 7 124 13.5zM170.5 80q76.5 -16 161.5 -16q92 0 165.5 23t114 61.5t40.5 83.5q0 40 -31 66t-83 26q-83 0 -170.5 -76.5t-164.5 -214.5l-50 31q83 153 183.5 240.5t196.5 88.5q51 0 91.5 -21
t63.5 -57.5t23 -82.5q0 -70 -49 -124t-135 -84t-194 -30q-89 0 -171 17.5t-142 45.5l22 64q52 -25 128.5 -41zM237 292q0 98 -8.5 215.5t-15.5 159.5l64 14q7 -41 14 -138.5t7 -192.5q0 -96 -8 -157l-58 -13q5 52 5 112z" />
    <glyph glyph-name="uni0637.medi" unicode="&#x637;" horiz-adv-x="688" arabic-form="medial" 
d="M556 64.5q90 6.5 137 5.5l4 -35l-4 -35q-98 0 -180 7t-110 20l28 24q35 7 125 13.5zM262 70q94 0 169 22.5t116.5 60.5t41.5 83q0 41 -30.5 67.5t-83.5 26.5q-82 0 -172 -79.5t-168 -218.5l-52 25q86 161 188 250.5t199 90.5q53 0 95 -23t64 -63t18 -90
q-6 -66 -56 -116.5t-133.5 -78t-187.5 -27.5h-275v70h267zM171 281q0 102 -7.5 225t-14.5 161l63 14q7 -38 14 -139t7 -198q0 -91 -7 -151l-58 -13q3 41 3 101z" />
    <glyph glyph-name="uni0637.init" unicode="&#x637;" horiz-adv-x="688" arabic-form="initial" 
d="M262 70q94 0 169 22.5t116.5 60.5t41.5 83q0 41 -30.5 67.5t-83.5 26.5q-82 0 -172 -79.5t-168 -218.5l-52 25q86 161 188 250.5t199 90.5q53 0 95 -23t64 -63t18 -90q-6 -66 -56 -116.5t-133.5 -78t-187.5 -27.5h-275v70h267zM171 281q0 102 -7.5 225t-14.5 161l63 14
q7 -38 14 -139t7 -198q0 -91 -7 -151l-58 -13q3 41 3 101z" />
    <glyph glyph-name="uni0638" unicode="&#x638;" horiz-adv-x="751" arabic-form="isolated" 
d="M170.5 80q76.5 -16 161.5 -16q92 0 165.5 23t114 61.5t40.5 83.5q0 40 -31 66t-83 26q-83 0 -170.5 -76.5t-164.5 -214.5l-50 31q83 153 183.5 240.5t196.5 88.5q51 0 91.5 -21t63.5 -57.5t23 -82.5q0 -70 -49 -124t-135 -84t-194 -30q-89 0 -171 17.5t-142 45.5l22 64
q52 -25 128.5 -41zM237 292q0 98 -8.5 215.5t-15.5 159.5l64 14q7 -41 14 -138.5t7 -192.5q0 -96 -8 -157l-58 -13q5 52 5 112zM452 588l63 63l63 -63l-63 -63z" />
    <glyph glyph-name="uni0638.fina" unicode="&#x638;" horiz-adv-x="754" arabic-form="final" 
d="M624 64.5q89 6.5 137 5.5l3 -35l-4 -35q-98 0 -178.5 7t-108.5 20l27 24q35 7 124 13.5zM170.5 80q76.5 -16 161.5 -16q92 0 165.5 23t114 61.5t40.5 83.5q0 40 -31 66t-83 26q-83 0 -170.5 -76.5t-164.5 -214.5l-50 31q83 153 183.5 240.5t196.5 88.5q51 0 91.5 -21
t63.5 -57.5t23 -82.5q0 -70 -49 -124t-135 -84t-194 -30q-89 0 -171 17.5t-142 45.5l22 64q52 -25 128.5 -41zM237 292q0 98 -8.5 215.5t-15.5 159.5l64 14q7 -41 14 -138.5t7 -192.5q0 -96 -8 -157l-58 -13q5 52 5 112zM453 588l63 63l63 -63l-63 -63z" />
    <glyph glyph-name="uni0638.medi" unicode="&#x638;" horiz-adv-x="688" arabic-form="medial" 
d="M556 64.5q90 6.5 137 5.5l4 -35l-4 -35q-98 0 -180 7t-110 20l28 24q35 7 125 13.5zM262 70q94 0 169 22.5t116.5 60.5t41.5 83q0 41 -30.5 67.5t-83.5 26.5q-82 0 -172 -79.5t-168 -218.5l-52 25q86 161 188 250.5t199 90.5q53 0 95 -23t64 -63t18 -90
q-6 -66 -56 -116.5t-133.5 -78t-187.5 -27.5h-275v70h267zM171 281q0 102 -7.5 225t-14.5 161l63 14q7 -38 14 -139t7 -198q0 -91 -7 -151l-58 -13q3 41 3 101zM391 588l63 63l63 -63l-63 -63z" />
    <glyph glyph-name="uni0638.init" unicode="&#x638;" horiz-adv-x="688" arabic-form="initial" 
d="M262 70q94 0 169 22.5t116.5 60.5t41.5 83q0 41 -30.5 67.5t-83.5 26.5q-82 0 -172 -79.5t-168 -218.5l-52 25q86 161 188 250.5t199 90.5q53 0 95 -23t64 -63t18 -90q-6 -66 -56 -116.5t-133.5 -78t-187.5 -27.5h-275v70h267zM171 281q0 102 -7.5 225t-14.5 161l63 14
q7 -38 14 -139t7 -198q0 -91 -7 -151l-58 -13q3 41 3 101zM391 588l63 63l63 -63l-63 -63z" />
    <glyph glyph-name="uni0639" unicode="&#x639;" horiz-adv-x="677" arabic-form="isolated" 
d="M276 184q-52 0 -95.5 24t-69 66t-25.5 94q0 49 26 93t70.5 70.5t97.5 26.5q39 0 81 -17t78 -47l-27 -49q-36 23 -74 34.5t-70 8.5q-54 -6 -87.5 -40.5t-33.5 -80.5q0 -33 19.5 -61.5t52.5 -45.5t72 -17q9 0 27 2l-4 -58q-19 -3 -38 -3zM521.5 -330.5
q-75.5 -18.5 -162.5 -18.5q-90 0 -162 33t-113.5 93.5t-41.5 138.5q0 159 133 249.5t288 129.5l13 -64q-153 -42 -260.5 -119.5t-111.5 -188.5q-1 -58 32.5 -104t95 -72t140.5 -26q70 0 136.5 14.5t115.5 34.5l23 -56q-50 -26 -125.5 -44.5z" />
    <glyph glyph-name="uni0639.fina" unicode="&#x639;" horiz-adv-x="549" arabic-form="final" 
d="M554 70l4 -35l-4 -35h-21q-103 0 -179.5 35t-137.5 96.5t-143 167.5l2 47q39 38 99 58t125 20q71 0 124 -23.5t67 -66.5q5 -14 5 -32q0 -94 -185 -184q-63 -32 -104.5 -58t-70.5 -60.5t-30 -75.5q-3 -15 -3 -29q0 -44 27 -80t75.5 -57t109.5 -21q60 0 117 16t88 36
l26 -55q-41 -30 -103.5 -48.5t-127.5 -18.5q-76 0 -139 31t-99 84.5t-36 119.5q0 21 2 32q9 59 45 103.5t83 74.5t113 62q78 38 115.5 66.5t37.5 59.5q0 27 -40.5 44.5t-96.5 17.5q-45 0 -87.5 -12t-73.5 -36q68 -87 121 -137.5t119 -78.5t155 -28h21z" />
    <glyph glyph-name="uni0639.medi" unicode="&#x639;" horiz-adv-x="541" arabic-form="medial" 
d="M-5 70h19q134 0 224.5 42.5t135.5 94.5t52 81q-10 23 -48 37t-87 14q-44 0 -86.5 -12.5t-74.5 -37.5q66 -81 121 -127t119 -69t152 -23h23l4 -35l-4 -35h-23q-103 0 -177 28t-137 85.5t-144 161.5l2 46q38 38 99 58.5t125 20.5q70 0 123 -23.5t67 -66.5q2 -8 2 -14
q0 -49 -59.5 -120t-166 -123.5t-242.5 -52.5h-19v70z" />
    <glyph glyph-name="uni0639.init" unicode="&#x639;" horiz-adv-x="521" arabic-form="initial" 
d="M-5 70h12q176 0 280 12.5t184 43.5l16 -63q-83 -34 -191 -48.5t-289 -14.5h-12v70zM213 44.5q-56 24.5 -90 69.5t-34 102q0 47 23.5 88t64 67.5t89.5 32.5q7 1 19 1q81 0 157 -65l-27 -50q-64 44 -126 44q-40 0 -72 -16t-49.5 -43t-17.5 -59q0 -35 23.5 -65.5t64.5 -47.5
t89 -15l4 -65q-62 -3 -118 21.5z" />
    <glyph glyph-name="uni063A" unicode="&#x63a;" horiz-adv-x="677" arabic-form="isolated" 
d="M276 184q-52 0 -95.5 24t-69 66t-25.5 94q0 49 26 93t70.5 70.5t97.5 26.5q39 0 81 -17t78 -47l-27 -49q-36 23 -74 34.5t-70 8.5q-54 -6 -87.5 -40.5t-33.5 -80.5q0 -33 19.5 -61.5t52.5 -45.5t72 -17q9 0 27 2l-4 -58q-19 -3 -38 -3zM521.5 -330.5
q-75.5 -18.5 -162.5 -18.5q-90 0 -162 33t-113.5 93.5t-41.5 138.5q0 159 133 249.5t288 129.5l13 -64q-153 -42 -260.5 -119.5t-111.5 -188.5q-1 -58 32.5 -104t95 -72t140.5 -26q70 0 136.5 14.5t115.5 34.5l23 -56q-50 -26 -125.5 -44.5zM202 702l63 63l63 -63l-63 -63z
" />
    <glyph glyph-name="uni063A.fina" unicode="&#x63a;" horiz-adv-x="549" arabic-form="final" 
d="M554 70l4 -35l-4 -35h-21q-103 0 -179.5 35t-137.5 96.5t-143 167.5l2 47q39 38 99 58t125 20q71 0 124 -23.5t67 -66.5q5 -14 5 -32q0 -94 -185 -184q-63 -32 -104.5 -58t-70.5 -60.5t-30 -75.5q-3 -15 -3 -29q0 -44 27 -80t75.5 -57t109.5 -21q60 0 117 16t88 36
l26 -55q-41 -30 -103.5 -48.5t-127.5 -18.5q-76 0 -139 31t-99 84.5t-36 119.5q0 21 2 32q9 59 45 103.5t83 74.5t113 62q78 38 115.5 66.5t37.5 59.5q0 27 -40.5 44.5t-96.5 17.5q-45 0 -87.5 -12t-73.5 -36q68 -87 121 -137.5t119 -78.5t155 -28h21zM222 550l63 63l63 -63
l-63 -63z" />
    <glyph glyph-name="uni063A.medi" unicode="&#x63a;" horiz-adv-x="541" arabic-form="medial" 
d="M-5 70h19q134 0 224.5 42.5t135.5 94.5t52 81q-10 23 -48 37t-87 14q-44 0 -86.5 -12.5t-74.5 -37.5q66 -81 121 -127t119 -69t152 -23h23l4 -35l-4 -35h-23q-103 0 -177 28t-137 85.5t-144 161.5l2 46q38 38 99 58.5t125 20.5q70 0 123 -23.5t67 -66.5q2 -8 2 -14
q0 -49 -59.5 -120t-166 -123.5t-242.5 -52.5h-19v70zM219 531l63 63l63 -63l-63 -63z" />
    <glyph glyph-name="uni063A.init" unicode="&#x63a;" horiz-adv-x="521" arabic-form="initial" 
d="M-5 70h12q176 0 280 12.5t184 43.5l16 -63q-83 -34 -191 -48.5t-289 -14.5h-12v70zM213 44.5q-56 24.5 -90 69.5t-34 102q0 47 23.5 88t64 67.5t89.5 32.5q7 1 19 1q81 0 157 -65l-27 -50q-64 44 -126 44q-40 0 -72 -16t-49.5 -43t-17.5 -59q0 -35 23.5 -65.5t64.5 -47.5
t89 -15l4 -65q-62 -3 -118 21.5zM206 549l63 63l63 -63l-63 -63z" />
    <glyph glyph-name="uni0641" unicode="&#x641;" horiz-adv-x="844" arabic-form="isolated" 
d="M407 -8l-3 35l3 35h9q150 0 234 32.5t100 95.5q1 7 1 22q0 51 -14.5 102.5t-43 86t-67.5 36.5q-25 1 -47.5 -17t-36 -46.5t-13.5 -57.5q0 -25 10 -42q16 -27 60.5 -40t100.5 -13q37 0 62 4v-66q-40 -5 -76 -5q-68 0 -120.5 18t-75.5 60q-18 32 -18 78q0 47 20.5 92.5
t56 74.5t77.5 29q54 0 94 -40.5t61.5 -104t21.5 -128.5q0 -22 -3 -43q-11 -93 -110 -145.5t-275 -53.5zM101 204q0 -13 1 -20q8 -59 86.5 -91t224.5 -31q2 -24 2 -35q0 -12 -2 -36q-171 -1 -267 46.5t-105 137.5q-1 8 -1 24q0 41 10.5 84.5t25.5 77.5l55 -27
q-30 -80 -30 -130zM560 646l63 63l63 -63l-63 -63z" />
    <glyph glyph-name="uni0641.fina" unicode="&#x641;" horiz-adv-x="879" arabic-form="final" 
d="M407 -9l-4 36l4 35h11q293 0 325 142l1 13q0 46 -26.5 82t-66.5 36q-39 0 -69.5 -34.5t-36.5 -84.5q-4 -40 26.5 -73.5t91 -53t142.5 -19.5h79l4 -35l-4 -35h-60q-99 0 -176.5 26.5t-121 72.5t-43.5 104q0 7 2 21q7 50 32 92t60.5 66t73.5 24q42 0 77 -27t55.5 -69.5
t20.5 -87.5q0 -8 -2 -24q-13 -101 -112 -154t-272 -53h-11zM101 204q0 -13 1 -20q8 -59 86.5 -91t224.5 -31q2 -24 2 -35q0 -12 -2 -36q-171 -1 -267 46.5t-105 137.5q-1 8 -1 24q0 41 10.5 84.5t25.5 77.5l55 -27q-30 -80 -30 -130zM594 530l63 63l63 -63l-63 -63z" />
    <glyph glyph-name="uni0641.medi" unicode="&#x641;" horiz-adv-x="474" arabic-form="medial" 
d="M-7 70h24q117 0 185.5 17.5t98 46.5t38.5 70q1 5 1 15q0 45 -27 80.5t-66 35.5t-69 -34.5t-37 -84.5q-4 -40 26.5 -73.5t91 -53t142.5 -19.5h79l4 -35l-4 -35h-60q-99 0 -176.5 26.5t-120.5 72.5t-43 104q0 7 2 21q7 50 31.5 92t60 66t74.5 24q41 0 76 -27t55.5 -69.5
t20.5 -87.5q0 -8 -2 -24q-13 -100 -108 -149t-273 -49h-24v70zM190 529l63 63l63 -63l-63 -63z" />
    <glyph glyph-name="uni0641.init" unicode="&#x641;" horiz-adv-x="434" arabic-form="initial" 
d="M-6 70h11q153 1 236 29.5t98 90.5q1 7 1 22q0 51 -14.5 102.5t-42.5 86t-67 36.5q-25 1 -47.5 -17.5t-36 -47.5t-13.5 -57q0 -24 10 -41q16 -27 60.5 -40.5t99.5 -13.5q31 0 63 5v-66q-40 -5 -76 -5q-68 0 -120.5 18t-75.5 60q-18 32 -18 78q0 47 20.5 92.5t56 74.5
t77.5 29q54 0 94.5 -40.5t61.5 -103.5t21 -128q0 -23 -3 -44q-11 -92 -109 -141t-276 -49h-11v70zM144 652l63 63l63 -63l-63 -63z" />
    <glyph glyph-name="uni06A4" unicode="&#x6a4;" horiz-adv-x="844" arabic-form="isolated" 
d="M407 -8l-3 35l3 35h9q150 0 234 32.5t100 95.5q1 7 1 22q0 51 -14.5 102.5t-43 86t-67.5 36.5q-25 1 -47.5 -17t-36 -46.5t-13.5 -57.5q0 -25 10 -42q16 -27 60.5 -40t100.5 -13q37 0 62 4v-66q-40 -5 -76 -5q-68 0 -120.5 18t-75.5 60q-18 32 -18 78q0 47 20.5 92.5
t56 74.5t77.5 29q54 0 94 -40.5t61.5 -104t21.5 -128.5q0 -22 -3 -43q-11 -93 -110 -145.5t-275 -53.5zM101 204q0 -13 1 -20q8 -59 86.5 -91t224.5 -31q2 -24 2 -35q0 -12 -2 -36q-171 -1 -267 46.5t-105 137.5q-1 8 -1 24q0 41 10.5 84.5t25.5 77.5l55 -27
q-30 -80 -30 -130zM622 795l54 -55l-54 -55l-54 55zM710 696l21 -21l40 -40l-61 -60l-60 60zM533 696l21 -21l40 -40l-61 -60l-60 60z" />
    <glyph glyph-name="uni06A4.fina" unicode="&#x6a4;" horiz-adv-x="879" arabic-form="final" 
d="M407 -9l-4 36l4 35h11q293 0 325 142l1 13q0 46 -26.5 82t-66.5 36q-39 0 -69.5 -34.5t-36.5 -84.5q-4 -40 26.5 -73.5t91 -53t142.5 -19.5h79l4 -35l-4 -35h-60q-99 0 -176.5 26.5t-121 72.5t-43.5 104q0 7 2 21q7 50 32 92t60.5 66t73.5 24q42 0 77 -27t55.5 -69.5
t20.5 -87.5q0 -8 -2 -24q-13 -101 -112 -154t-272 -53h-11zM101 204q0 -13 1 -20q8 -59 86.5 -91t224.5 -31q2 -24 2 -35q0 -12 -2 -36q-171 -1 -267 46.5t-105 137.5q-1 8 -1 24q0 41 10.5 84.5t25.5 77.5l55 -27q-30 -80 -30 -130zM657 706l54 -55l-54 -55l-54 55z
M745 607l21 -21l40 -40l-61 -60l-60 60zM568 607l21 -21l40 -40l-61 -60l-60 60z" />
    <glyph glyph-name="uni06A4.medi" unicode="&#x6a4;" horiz-adv-x="474" arabic-form="medial" 
d="M-7 70h24q117 0 185.5 17.5t98 46.5t38.5 70q1 5 1 15q0 45 -27 80.5t-66 35.5t-69 -34.5t-37 -84.5q-4 -40 26.5 -73.5t91 -53t142.5 -19.5h79l4 -35l-4 -35h-60q-99 0 -176.5 26.5t-120.5 72.5t-43 104q0 7 2 21q7 50 31.5 92t60 66t74.5 24q41 0 76 -27t55.5 -69.5
t20.5 -87.5q0 -8 -2 -24q-13 -100 -108 -149t-273 -49h-24v70zM249 704l54 -55l-54 -55l-54 55zM337 605l21 -21l40 -40l-61 -60l-60 60zM160 605l21 -21l40 -40l-61 -60l-60 60z" />
    <glyph glyph-name="uni06A4.init" unicode="&#x6a4;" horiz-adv-x="434" arabic-form="initial" 
d="M-6 70h11q153 1 236 29.5t98 90.5q1 7 1 22q0 51 -14.5 102.5t-42.5 86t-67 36.5q-25 1 -47.5 -17.5t-36 -47.5t-13.5 -57q0 -24 10 -41q16 -27 60.5 -40.5t99.5 -13.5q31 0 63 5v-66q-40 -5 -76 -5q-68 0 -120.5 18t-75.5 60q-18 32 -18 78q0 47 20.5 92.5t56 74.5
t77.5 29q54 0 94.5 -40.5t61.5 -103.5t21 -128q0 -23 -3 -44q-11 -92 -109 -141t-276 -49h-11v70zM219 790l54 -55l-54 -55l-54 55zM307 691l21 -21l40 -40l-61 -60l-60 60zM130 691l21 -21l40 -40l-61 -60l-60 60z" />
    <glyph glyph-name="uni06A1.init" unicode="&#x6a1;" horiz-adv-x="434" 
d="M-6 70h11q153 1 236 29.5t98 90.5q1 7 1 22q0 51 -14.5 102.5t-42.5 86t-67 36.5q-25 1 -47.5 -17.5t-36 -47.5t-13.5 -57q0 -24 10 -41q16 -27 60.5 -40.5t99.5 -13.5q31 0 63 5v-66q-40 -5 -76 -5q-68 0 -120.5 18t-75.5 60q-18 32 -18 78q0 47 20.5 92.5t56 74.5
t77.5 29q54 0 94.5 -40.5t61.5 -103.5t21 -128q0 -23 -3 -44q-11 -92 -109 -141t-276 -49h-11v70z" />
    <glyph glyph-name="uni06A1.medi" unicode="&#x6a1;" horiz-adv-x="474" 
d="M-7 70h24q117 0 185.5 17.5t98 46.5t38.5 70q1 5 1 15q0 45 -27 80.5t-66 35.5t-69 -34.5t-37 -84.5q-4 -40 26.5 -73.5t91 -53t142.5 -19.5h79l4 -35l-4 -35h-60q-99 0 -176.5 26.5t-120.5 72.5t-43 104q0 7 2 21q7 50 31.5 92t60 66t74.5 24q41 0 76 -27t55.5 -69.5
t20.5 -87.5q0 -8 -2 -24q-13 -100 -108 -149t-273 -49h-24v70z" />
    <glyph glyph-name="uni06A1.fina" unicode="&#x6a1;" horiz-adv-x="879" 
d="M407 -9l-4 36l4 35h11q293 0 325 142l1 13q0 46 -26.5 82t-66.5 36q-39 0 -69.5 -34.5t-36.5 -84.5q-4 -40 26.5 -73.5t91 -53t142.5 -19.5h79l4 -35l-4 -35h-60q-99 0 -176.5 26.5t-121 72.5t-43.5 104q0 7 2 21q7 50 32 92t60.5 66t73.5 24q42 0 77 -27t55.5 -69.5
t20.5 -87.5q0 -8 -2 -24q-13 -101 -112 -154t-272 -53h-11zM101 204q0 -13 1 -20q8 -59 86.5 -91t224.5 -31q2 -24 2 -35q0 -12 -2 -36q-171 -1 -267 46.5t-105 137.5q-1 8 -1 24q0 41 10.5 84.5t25.5 77.5l55 -27q-30 -80 -30 -130z" />
    <glyph glyph-name="uni066F.fina" unicode="&#x66f;" horiz-adv-x="677" 
d="M61 111q19 65 46 117l54 -26q-57 -124 -57 -209q0 -97 60 -152.5t167 -55.5q113 0 183.5 57.5t74.5 157.5q-104 0 -172.5 16t-95.5 65q-17 30 -17 73q0 48 21.5 97.5t57 81t75.5 31.5q54 0 95 -45t64.5 -113t28.5 -136h37l3 -35l-3 -35h-37q-5 -88 -46.5 -152.5
t-111 -98.5t-157.5 -34q-95 0 -160.5 39t-97 100.5t-31.5 131.5q0 60 19 125zM446 79.5q57 -9.5 143 -9.5q-7 85 -41 153t-91 71q-24 1 -46.5 -19t-36 -51.5t-13.5 -61.5q0 -25 10 -42q18 -31 75 -40.5z" />
    <glyph glyph-name="uni0642" unicode="&#x642;" horiz-adv-x="688" arabic-form="isolated" 
d="M61 149q19 65 46 117l54 -26q-26 -57 -41.5 -108t-15.5 -100q0 -97 60 -153t167 -56q75 0 132.5 27t90.5 76.5t35 115.5q-37 -8 -81 -8q-62 0 -113.5 19t-74.5 62q-16 32 -16 73q0 49 21 99t56 82.5t75 32.5q60 0 104 -53t66 -130.5t22 -149.5q0 -97 -40.5 -168.5
t-112.5 -109.5t-164 -38q-95 0 -160.5 39t-97 100.5t-31.5 131.5q0 60 19 125zM425 115.5q39 -12.5 88 -12.5q40 0 75 8q-8 86 -42.5 153.5t-92.5 67.5q-24 0 -45 -20.5t-34 -52t-13 -61.5q0 -27 10 -44q15 -26 54 -38.5zM366 600l60 -61l-60 -60l-20 20l-40 40zM531 600
l60 -61l-60 -60l-20 20l-40 40z" />
    <glyph glyph-name="uni0642.fina" unicode="&#x642;" horiz-adv-x="677" arabic-form="final" 
d="M61 111q19 65 46 117l54 -26q-57 -124 -57 -209q0 -97 60 -152.5t167 -55.5q113 0 183.5 57.5t74.5 157.5q-104 0 -172.5 16t-95.5 65q-17 30 -17 73q0 48 21.5 97.5t57 81t75.5 31.5q54 0 95 -45t64.5 -113t28.5 -136h37l3 -35l-3 -35h-37q-5 -88 -46.5 -152.5
t-111 -98.5t-157.5 -34q-95 0 -160.5 39t-97 100.5t-31.5 131.5q0 60 19 125zM446 79.5q57 -9.5 143 -9.5q-7 85 -41 153t-91 71q-24 1 -46.5 -19t-36 -51.5t-13.5 -61.5q0 -25 10 -42q18 -31 75 -40.5zM369 562l60 -61l-60 -60l-20 20l-40 40zM534 562l60 -61l-60 -60
l-20 20l-40 40z" />
    <glyph glyph-name="uni0642.medi" unicode="&#x642;" horiz-adv-x="474" arabic-form="medial" 
d="M-7 70h24q117 0 185.5 17.5t98 46.5t38.5 70q1 5 1 15q0 45 -27 80.5t-66 35.5t-69 -34.5t-37 -84.5q-4 -40 26.5 -73.5t91 -53t142.5 -19.5h79l4 -35l-4 -35h-60q-99 0 -176.5 26.5t-120.5 72.5t-43 104q0 7 2 21q7 50 31.5 92t60 66t74.5 24q41 0 76 -27t55.5 -69.5
t20.5 -87.5q0 -8 -2 -24q-13 -100 -108 -149t-273 -49h-24v70zM168 585l60 -61l-60 -60l-20 20l-40 40zM333 585l60 -61l-60 -60l-20 20l-40 40z" />
    <glyph glyph-name="uni0642.init" unicode="&#x642;" horiz-adv-x="434" arabic-form="initial" 
d="M-6 70h11q153 1 236 29.5t98 90.5q1 7 1 22q0 51 -14.5 102.5t-42.5 86t-67 36.5q-25 1 -47.5 -17.5t-36 -47.5t-13.5 -57q0 -24 10 -41q16 -27 60.5 -40.5t99.5 -13.5q31 0 63 5v-66q-40 -5 -76 -5q-68 0 -120.5 18t-75.5 60q-18 32 -18 78q0 47 20.5 92.5t56 74.5
t77.5 29q54 0 94.5 -40.5t61.5 -103.5t21 -128q0 -23 -3 -44q-11 -92 -109 -141t-276 -49h-11v70zM137 706l60 -61l-60 -60l-20 20l-40 40zM302 706l60 -61l-60 -60l-20 20l-40 40z" />
    <glyph glyph-name="uni0643" unicode="&#x643;" horiz-adv-x="765" arabic-form="isolated" 
d="M407 62h6q128 0 188.5 33t60.5 105q0 55 -6 237.5t-12 230.5l61 13q8 -48 15 -235t7 -246q0 -106 -80.5 -157.5t-232.5 -51.5h-7v71zM101 204q0 -13 1 -20q8 -59 86.5 -91t224.5 -31q2 -24 2 -35q0 -12 -2 -36q-171 -1 -267 46.5t-105 137.5q-1 8 -1 24q0 41 10.5 84.5
t25.5 77.5l55 -27q-30 -80 -30 -130zM470 407l-75 -33q26 -18 41.5 -39t15.5 -40q0 -30 -34 -43.5t-84 -11.5l4 39q37 0 58 5t26 11q-1 12 -25 30t-45 28l3 46l101 46z" />
    <glyph glyph-name="uni0643.fina" unicode="&#x643;" horiz-adv-x="804" arabic-form="final" 
d="M809 70l4 -35l-4 -35h-11q-62 0 -98 56.5t-39 140.5q0 3 -0.5 16t-0.5 43q-1 32 -5 200.5t-9 211.5l61 13q9 -62 18 -470q1 -11 1 -23q2 -63 18 -90.5t54 -27.5h11zM407 62h6q132 0 191.5 31t56.5 104q0 9 6 14t15 5q12 0 22.5 -8t11.5 -21q3 -100 -73 -148t-229 -48h-7
v71zM101 204q0 -13 1 -20q8 -59 86.5 -91t224.5 -31q2 -24 2 -35q0 -12 -2 -36q-171 -1 -267 46.5t-105 137.5q-1 8 -1 24q0 41 10.5 84.5t25.5 77.5l55 -27q-30 -80 -30 -130zM470 407l-75 -33q25 -18 40.5 -39t15.5 -40q0 -30 -33.5 -43.5t-83.5 -11.5l4 39q37 0 58 5
t26 11q-1 12 -25 30t-45 28l3 46l101 46z" />
    <glyph glyph-name="uni0643.medi" unicode="&#x643;" horiz-adv-x="537" arabic-form="medial" 
d="M379.5 169q36.5 -51 71.5 -74.5t80 -23.5l11 -1l3 -35l-3 -35h-11q-54 0 -97 28.5t-84.5 87.5t-99.5 165l33 40q60 -101 96.5 -152zM443 643l-321 -140q89 -75 149.5 -163.5t60.5 -162.5q0 -28 -11 -55q-52 -122 -304 -122h-22v70h22q208 0 246 77q7 14 7 35
q0 56 -58.5 134.5t-162.5 161.5l9 66l364 158z" />
    <glyph glyph-name="uni0643.init" unicode="&#x643;" horiz-adv-x="443" arabic-form="initial" 
d="M443 643l-321 -140q89 -75 149.5 -163.5t60.5 -162.5q0 -28 -11 -55q-52 -122 -304 -122h-22v70h22q208 0 246 77q7 14 7 35q0 56 -58.5 134.5t-162.5 161.5l9 66l364 158z" />
    <glyph glyph-name="uni06A9" unicode="&#x6a9;" horiz-adv-x="853" arabic-form="isolated" 
d="M853 653l-321 -140q87 -74 148.5 -166.5t61.5 -168.5q0 -29 -11 -56q-27 -64 -105 -97.5t-199 -33.5h-22l-4 35l4 35h22q103 0 165.5 21.5t80.5 61.5q7 15 7 37q0 60 -59 142.5t-162 164.5l9 65l364 158zM101 204q0 -13 1 -20q8 -59 86.5 -91t224.5 -31q2 -24 2 -35
q0 -12 -2 -36q-171 -1 -267 46.5t-105 137.5q-1 8 -1 24q0 41 10.5 84.5t25.5 77.5l55 -27q-30 -80 -30 -130z" />
    <glyph glyph-name="uni06A9.fina" unicode="&#x6a9;" horiz-adv-x="946" arabic-form="final" 
d="M784.5 177.5q38.5 -53.5 75 -80t80.5 -26.5l11 -1l4 -35l-4 -35h-11q-52 0 -97.5 33t-89 94.5t-100.5 163.5l34 42q59 -102 97.5 -155.5zM851 653l-321 -140q87 -74 148.5 -166.5t61.5 -168.5q0 -29 -11 -56q-27 -64 -105 -97.5t-199 -33.5h-22l-4 35l4 35h22
q103 0 165.5 21.5t80.5 61.5q7 15 7 37q0 60 -59 142.5t-162 164.5l9 65l364 158zM101 204q0 -13 1 -20q8 -59 86.5 -91t224.5 -31q2 -24 2 -35q0 -12 -2 -36q-171 -1 -267 46.5t-105 137.5q-1 8 -1 24q0 41 10.5 84.5t25.5 77.5l55 -27q-30 -80 -30 -130z" />
    <glyph glyph-name="uni06A9.medi" unicode="&#x6a9;" horiz-adv-x="537" arabic-form="medial" 
d="M379.5 169q36.5 -51 71.5 -74.5t80 -23.5l11 -1l3 -35l-3 -35h-11q-54 0 -97 28.5t-84.5 87.5t-99.5 165l33 40q60 -101 96.5 -152zM443 643l-321 -140q89 -75 149.5 -163.5t60.5 -162.5q0 -28 -11 -55q-52 -122 -304 -122h-22v70h22q208 0 246 77q7 14 7 35
q0 56 -58.5 134.5t-162.5 161.5l9 66l364 158z" />
    <glyph glyph-name="uni06A9.init" unicode="&#x6a9;" horiz-adv-x="443" arabic-form="initial" 
d="M443 643l-321 -140q89 -75 149.5 -163.5t60.5 -162.5q0 -28 -11 -55q-52 -122 -304 -122h-22v70h22q208 0 246 77q7 14 7 35q0 56 -58.5 134.5t-162.5 161.5l9 66l364 158z" />
    <glyph glyph-name="uni06AF" unicode="&#x6af;" horiz-adv-x="852" arabic-form="isolated" 
d="M852 603l-321 -140q92 -77 146.5 -149t54.5 -137q0 -30 -11 -55q-27 -65 -101 -98t-193 -33h-22l-4 35l4 35h22q101 0 161 21.5t78 61.5q8 18 8 34q0 49 -53.5 112t-161.5 147l8 67l364 157zM473 618l314 135l15 -34l-334 -144zM101 204q0 -13 1 -20q8 -59 86.5 -91
t224.5 -31q2 -24 2 -35q0 -12 -2 -36q-171 -1 -267 46.5t-105 137.5q-1 8 -1 24q0 41 10.5 84.5t25.5 77.5l55 -27q-30 -80 -30 -130z" />
    <glyph glyph-name="uni06AF.fina" unicode="&#x6af;" horiz-adv-x="928" arabic-form="final" 
d="M785.5 153q34.5 -44 65.5 -63t71 -19l11 -1l4 -35l-4 -35h-11q-51 0 -91 25t-80 78.5t-97 151.5l40 32q57 -90 91.5 -134zM850 603l-321 -140q92 -77 146.5 -149t54.5 -137q0 -30 -11 -55q-27 -65 -101 -98t-193 -33h-22l-4 35l4 35h22q101 0 161 21.5t78 61.5q8 18 8 34
q0 49 -53.5 112t-161.5 147l8 67l364 157zM471 618l314 135l15 -34l-334 -144zM101 204q0 -13 1 -20q8 -59 86.5 -91t224.5 -31q2 -24 2 -35q0 -12 -2 -36q-171 -1 -267 46.5t-105 137.5q-1 8 -1 24q0 41 10.5 84.5t25.5 77.5l55 -27q-30 -80 -30 -130z" />
    <glyph glyph-name="uni06AF.medi" unicode="&#x6af;" horiz-adv-x="520" arabic-form="medial" 
d="M421.5 27q-39.5 27 -75.5 78.5t-100 160.5l38 35q56 -94 89 -140t66 -68t75 -22l12 -1l4 -35l-4 -35h-12q-53 0 -92.5 27zM-5 70h22q102 0 160.5 18t79.5 56q9 15 9 36q0 53 -57.5 128t-158.5 154l7 66l364 157l21 -58l-321 -140q88 -74 144.5 -156t56.5 -153
q0 -31 -11 -56q-27 -63 -99.5 -92.5t-194.5 -29.5h-22v70zM68 644l314 135l15 -34l-334 -144z" />
    <glyph glyph-name="uni06AF.init" unicode="&#x6af;" horiz-adv-x="442" arabic-form="initial" 
d="M-5 70h22q102 0 160.5 18t79.5 56q9 15 9 36q0 53 -57.5 128t-158.5 154l7 66l364 157l21 -58l-321 -140q88 -74 144.5 -156t56.5 -153q0 -31 -11 -56q-27 -63 -99.5 -92.5t-194.5 -29.5h-22v70zM68 644l314 135l15 -34l-334 -144z" />
    <glyph glyph-name="uni0644" unicode="&#x644;" horiz-adv-x="638" arabic-form="isolated" 
d="M577.5 494.5q6.5 -140.5 8.5 -182.5l10 -230q7 -157 -68 -243.5t-218 -86.5q-76 0 -137.5 31t-97 88t-35.5 131q0 50 18 113t46 118l55 -26q-26 -51 -41 -103t-15 -97q0 -54 25.5 -96t72.5 -65t109 -23q236 0 224 255q-10 227 -17.5 383t-13.5 207l63 13
q5 -46 11.5 -186.5z" />
    <glyph glyph-name="uni0644.fina" unicode="&#x644;" horiz-adv-x="697" arabic-form="final" 
d="M702 70l3 -35l-3 -35h-11q-64 0 -100.5 48.5t-36.5 134.5l37 10q3 -48 12.5 -74t30 -37.5t57.5 -11.5h11zM577.5 494.5q6.5 -140.5 8.5 -182.5l10 -230q7 -157 -68 -243.5t-218 -86.5q-76 0 -137.5 31t-97 88t-35.5 131q0 50 18 113t46 118l55 -26q-26 -51 -41 -103
t-15 -97q0 -54 25.5 -96t72.5 -65t109 -23q236 0 224 255q-10 227 -17.5 383t-13.5 207l63 13q5 -46 11.5 -186.5z" />
    <glyph glyph-name="uni0644.medi" unicode="&#x644;" horiz-adv-x="294" arabic-form="medial" 
d="M299 70l4 -35l-4 -35h-11q-41 0 -75 23.5t-53.5 66t-19.5 97.5q-2 78 -9 259.5t-11 221.5l63 13q5 -41 10 -207.5t6 -190.5q2 -81 3 -96q4 -117 86 -117h11zM-5 70h30q61 0 88.5 28.5t26.5 88.5l48 -5q0 -85 -41 -133.5t-121 -48.5h-31v70z" />
    <glyph glyph-name="uni0644.init" unicode="&#x644;" horiz-adv-x="246" arabic-form="initial" 
d="M-5 70h33q61 0 88 28t27 86q0 53 -9.5 246.5t-15.5 237.5l63 13q6 -44 15.5 -240.5t9.5 -251.5q0 -88 -47 -138.5t-130 -50.5h-34v70z" />
    <glyph glyph-name="uni06B5.init" unicode="&#x6b5;" horiz-adv-x="246" 
d="M-5 70h33q61 0 88 28t27 86q0 53 -9.5 246.5t-15.5 237.5l63 13q6 -44 15.5 -240.5t9.5 -251.5q0 -88 -47 -138.5t-130 -50.5h-34v70zM165 717l-34 -14q-10 33 -30.5 72.5t-41.5 69.5l28 26q15 -20 31.5 -49.5t27.5 -58.5q11 31 26.5 63t30.5 54l30 -25q-47 -69 -68 -138
z" />
    <glyph glyph-name="uni06B5.medi" unicode="&#x6b5;" horiz-adv-x="294" 
d="M299 70l4 -35l-4 -35h-11q-41 0 -75 23.5t-53.5 66t-19.5 97.5q-2 78 -9 259.5t-11 221.5l63 13q5 -41 10 -207.5t6 -190.5q2 -81 3 -96q4 -117 86 -117h11zM-5 70h30q61 0 88.5 28.5t26.5 88.5l48 -5q0 -85 -41 -133.5t-121 -48.5h-31v70zM168 717l-34 -14
q-10 33 -30.5 72.5t-41.5 69.5l28 26q15 -20 31.5 -49.5t27.5 -58.5q11 31 26.5 63t30.5 54l30 -25q-47 -69 -68 -138z" />
    <glyph glyph-name="uni06B5.fina" unicode="&#x6b5;" horiz-adv-x="697" 
d="M702 70l3 -35l-3 -35h-11q-64 0 -100.5 48.5t-36.5 134.5l37 10q3 -48 12.5 -74t30 -37.5t57.5 -11.5h11zM577.5 494.5q6.5 -140.5 8.5 -182.5l10 -230q7 -157 -68 -243.5t-218 -86.5q-76 0 -137.5 31t-97 88t-35.5 131q0 50 18 113t46 118l55 -26q-26 -51 -41 -103
t-15 -97q0 -54 25.5 -96t72.5 -65t109 -23q236 0 224 255q-10 227 -17.5 383t-13.5 207l63 13q5 -46 11.5 -186.5zM553 731l-34 -14q-10 33 -30.5 72.5t-41.5 69.5l28 26q15 -20 31.5 -49.5t27.5 -58.5q11 31 26.5 63t30.5 54l30 -25q-47 -69 -68 -138z" />
    <glyph glyph-name="uni0645" unicode="&#x645;" horiz-adv-x="537" arabic-form="isolated" 
d="M67 148q24 25 57 25q16 0 35 -8q43 86 87 138t98 52q45 0 80 -29t53.5 -75.5t18.5 -96.5t-19.5 -90.5t-57.5 -59.5q-16 -9 -38 -9q-36 0 -91.5 24.5t-144.5 77.5q-7 4 -15 4q-10 0 -16.5 -6.5t-7.5 -19.5q-1 -15 -1 -48q0 -73 6.5 -167.5t7.5 -117.5l6 -83l-62 -11l-4 46
q-19 214 -19 328q0 24 2 62q1 39 25 64zM311 81.5q44 -19.5 69 -19.5q12 0 19 4q20 9 30 32t10 53q0 33 -11.5 65t-33 52.5t-49.5 20.5q-34 0 -64.5 -39t-70.5 -112q57 -37 101 -56.5z" />
    <glyph glyph-name="uni0645.fina" unicode="&#x645;" horiz-adv-x="572" arabic-form="final" 
d="M42 8q0 30 2 76q1 40 23 64.5t54 24.5q17 0 34 -7q33 61 58 99t57 64t70 26q57 0 92.5 -44.5t50.5 -114.5q12 -63 33.5 -94.5t55.5 -31.5h6l3 -35l-3 -35h-6q-42 0 -66 23t-34 60q-4 -27 -20 -48t-37 -31q-18 -8 -38 -8q-36 0 -92.5 24t-143.5 77q-8 5 -16 5
q-10 0 -16 -6.5t-7 -19.5q-1 -16 -1 -52q0 -117 18 -336l2 -27l-61 -13q-18 234 -18 360zM434 141q0 34 -12 68.5t-33.5 57t-48.5 22.5q-35 0 -64 -37.5t-71 -113.5q60 -40 107.5 -59.5t75.5 -19.5q10 0 16 3q30 21 30 79z" />
    <glyph glyph-name="uni0645.medi" unicode="&#x645;" horiz-adv-x="573" arabic-form="medial" 
d="M-5 70h20q42 0 77 23.5t59 68.5q32 61 58 100.5t59 66t71 26.5q57 0 92.5 -44.5t50.5 -114.5q14 -65 33 -95.5t55 -30.5h8l4 -35l-4 -35h-8q-77 0 -98 83q-4 -26 -20.5 -47t-38.5 -32q-16 -9 -39 -9q-68 0 -202 87q-29 -40 -70 -61t-89 -21h-18v70zM310 78.5
q48 -20.5 76 -20.5q11 0 17 3q30 21 30 79q0 34 -12 69t-34 57.5t-49 22.5q-33 0 -64.5 -39.5t-69.5 -111.5q58 -39 106 -59.5z" />
    <glyph glyph-name="uni0645.init" unicode="&#x645;" horiz-adv-x="530" arabic-form="initial" 
d="M297.5 85q49.5 -23 77.5 -23q8 0 18 4q20 9 30 32t10 53q0 33 -12 65t-33.5 52.5t-49.5 20.5q-34 0 -67.5 -43.5t-78.5 -130.5q-29 -56 -75 -85.5t-104 -29.5h-18l1 70h19q43 0 78 23.5t58 68.5q45 89 89 141t99 52q45 0 79.5 -29t53 -75.5t18.5 -96.5t-19.5 -90.5
t-57.5 -59.5q-15 -8 -39 -8q-74 0 -220 97l29 58q65 -43 114.5 -66z" />
    <glyph glyph-name="uni0646" unicode="&#x646;" horiz-adv-x="685" arabic-form="isolated" 
d="M104 32q0 -99 60 -153.5t167 -54.5q84 0 140.5 31.5t83.5 79.5t27 99q0 49 -13.5 106t-39.5 148l59 26q29 -97 42 -160.5t13 -119.5q0 -68 -36 -132.5t-106.5 -106t-169.5 -41.5q-95 0 -160.5 39t-97 100.5t-31.5 131.5q0 60 19 125t46 117l54 -26q-57 -124 -57 -209z
M289 293l63 63l63 -63l-63 -63z" />
    <glyph glyph-name="uni0646.fina" unicode="&#x646;" horiz-adv-x="712" arabic-form="final" 
d="M651 96.5q21 -25.5 61 -26.5h6l3 -35l-3 -35h-6q-35 0 -59.5 22.5t-40.5 56.5t-35 86l36 22q17 -65 38 -90.5zM104 -7q0 -99 60 -153.5t167 -54.5q84 0 140.5 31.5t83.5 79.5t27 99q0 49 -13.5 106t-39.5 148l59 26q29 -97 42 -160.5t13 -119.5q0 -68 -36 -132.5
t-106.5 -106t-169.5 -41.5q-95 0 -160.5 39t-97 100.5t-31.5 131.5q0 60 19 125t46 117l54 -26q-57 -124 -57 -209zM289 255l63 63l63 -63l-63 -63z" />
    <glyph glyph-name="uni0646.medi" unicode="&#x646;" horiz-adv-x="338" arabic-form="medial" 
d="M-5 70h7q72 1 111 16t55 48q8 17 8 53q0 43 -11 111l59 12q8 -43 10.5 -93t1.5 -69q6 -38 32 -58t66 -20h9l4 -35l-4 -35h-9q-52 0 -90 29t-48 77h19q-17 -57 -69 -81.5t-144 -24.5h-7v70zM59 460l63 63l63 -63l-63 -63z" />
    <glyph glyph-name="uni0646.init" unicode="&#x646;" horiz-adv-x="311" arabic-form="initial" 
d="M-5 70h52q84 0 122.5 24t38.5 74q-1 34 -20 95.5t-34 94.5l57 30q19 -40 39 -108t20 -115q-1 -82 -58.5 -123.5t-164.5 -41.5h-52v70zM91 522l63 63l63 -63l-63 -63z" />
    <glyph glyph-name="uni06BA.fina" unicode="&#x6ba;" horiz-adv-x="712" arabic-form="final" 
d="M651 96.5q21 -25.5 61 -26.5h6l3 -35l-3 -35h-6q-35 0 -59.5 22.5t-40.5 56.5t-35 86l36 22q17 -65 38 -90.5zM104 -7q0 -99 60 -153.5t167 -54.5q84 0 140.5 31.5t83.5 79.5t27 99q0 49 -13.5 106t-39.5 148l59 26q29 -97 42 -160.5t13 -119.5q0 -68 -36 -132.5
t-106.5 -106t-169.5 -41.5q-95 0 -160.5 39t-97 100.5t-31.5 131.5q0 60 19 125t46 117l54 -26q-57 -124 -57 -209z" />
    <glyph glyph-name="uni0647" unicode="&#x647;" horiz-adv-x="421" arabic-form="isolated" 
d="M102 159q0 -42 29 -66.5t84 -24.5q47 0 79 23.5t34 60.5q4 62 -44.5 118t-166.5 127l35 57q122 -73 179 -141t57 -145q0 -15 -1 -23q-7 -65 -56.5 -106t-118.5 -41q-78 0 -124 43.5t-46 109.5q0 25 5 44q24 102 134 202l39 -46q-118 -99 -118 -192z" />
    <glyph glyph-name="uni0647.fina" unicode="&#x647;" horiz-adv-x="470" arabic-form="final" 
d="M358 198q5 -50 15.5 -77.5t32 -39t58.5 -11.5h13l3 -35l-3 -35h-13q-77 0 -117.5 44.5t-50.5 144.5q-2 23 -5 51.5t-6 60.5q-4 36 -16 151l63 12q17 -183 26 -266zM217 54q-77 0 -126.5 35t-49.5 94q0 71 68.5 125t180.5 89l14 -66q-83 -22 -141 -60t-61 -74
q-3 -32 27.5 -52.5t82.5 -20.5q51 0 107 20l16 -70q-59 -20 -118 -20z" />
    <glyph glyph-name="uni0647.medi" unicode="&#x647;" horiz-adv-x="491" arabic-form="medial" 
d="M-4 70h48q129 0 197.5 38t68.5 106q0 36 -25 72t-67 63q-29 -45 -54 -129t-25 -168q0 -69 23.5 -120.5t59.5 -78t72 -26.5q31 0 50 19q14 14 14 38q0 39 -33 86.5t-87 79.5l14 59q52 -21 110.5 -30t134.5 -9l4 -35l-4 -35q-75 0 -135.5 12.5t-121.5 39.5l15 40
q70 -30 115 -90.5t45 -120.5q0 -51 -34 -84q-37 -35 -91 -35q-51 0 -99 33t-79.5 97.5t-31.5 155.5q0 111 32 203.5t66 143.5l54 20q62 -34 98.5 -90.5t36.5 -116.5q0 -99 -90.5 -153.5t-244.5 -54.5h-36v70z" />
    <glyph glyph-name="uni0647.init" unicode="&#x647;" horiz-adv-x="624" arabic-form="initial" 
d="M-3 70h13q160 0 238.5 33t89.5 102q1 5 1 16q0 47 -26 82t-67 35q-25 0 -50.5 -18.5t-41.5 -47t-16 -58.5q0 -39 44.5 -74t110 -56t123.5 -21q49 0 79.5 17.5t30.5 52.5q0 60 -97 126t-302 123l23 66q243 -79 338.5 -153t95.5 -153q0 -24 -8 -53q-13 -45 -58 -67
t-110 -22q-76 0 -155.5 28.5t-129 78t-44.5 108.5q5 48 30.5 91t62.5 69.5t76 26.5t73.5 -25t54.5 -66.5t20 -87.5q0 -8 -2 -26q-15 -104 -107.5 -150.5t-276.5 -46.5h-13v70z" />
    <glyph glyph-name="uni06C1.init" unicode="&#x6c1;" horiz-adv-x="353" arabic-form="initial" 
d="M9 70h38q109 0 156.5 23t47.5 73q0 33 -19 95t-34 97l57 30q20 -43 39 -107.5t19 -110.5q0 -170 -259 -170h-45v70zM-1 0l-4 35l4 35h18v-70h-18zM76 -258q-20 22 -20 59q0 46 30 95t77 77l24 -29q-45 -31 -63.5 -65t-21.5 -56q2 2 9 4.5t16 2.5q22 0 38 -16t16 -39
q0 -22 -16.5 -38t-37.5 -16q-31 -1 -51 21z" />
    <glyph glyph-name="uni06C2.fina" unicode="&#x6c2;" horiz-adv-x="522" 
d="M173 372q-29 26 -29 62q0 30 19 55.5t49 32.5q12 3 25 3q16 0 34 -4.5t32 -8.5l-11 -43q-34 12 -54 12q-28 0 -44.5 -17.5t-11.5 -38.5q3 -16 22.5 -29t45.5 -13l-7 -41q-41 4 -70 30zM115 342l210 69v-44l-210 -68v43zM528 70l3 -35l-3 -35h-7q-96 0 -162.5 58
t-108.5 144q-31 -11 -64 -42t-59 -76t-35 -97l-45 30q8 57 37.5 108.5t69.5 88.5t78 53q14 7 28 7q25 0 44 -31q26 -49 52.5 -85t67.5 -62t96 -26h8z" />
    <glyph glyph-name="uni06BE.init" unicode="&#x6be;" horiz-adv-x="624" arabic-form="initial" 
d="M-3 70h13q160 0 238.5 33t89.5 102q1 5 1 16q0 47 -26 82t-67 35q-25 0 -50.5 -18.5t-41.5 -47t-16 -58.5q0 -39 44.5 -74t110 -56t123.5 -21q49 0 79.5 17.5t30.5 52.5q0 60 -97 126t-302 123l23 66q243 -79 338.5 -153t95.5 -153q0 -24 -8 -53q-13 -45 -58 -67
t-110 -22q-76 0 -155.5 28.5t-129 78t-44.5 108.5q5 48 30.5 91t62.5 69.5t76 26.5t73.5 -25t54.5 -66.5t20 -87.5q0 -8 -2 -26q-15 -104 -107.5 -150.5t-276.5 -46.5h-13v70z" />
    <glyph glyph-name="uni0629" unicode="&#x629;" horiz-adv-x="421" arabic-form="isolated" 
d="M102 159q0 -42 29 -66.5t84 -24.5q47 0 79 23.5t34 60.5q4 62 -44.5 118t-166.5 127l35 57q122 -73 179 -141t57 -145q0 -15 -1 -23q-7 -65 -56.5 -106t-118.5 -41q-78 0 -124 43.5t-46 109.5q0 25 5 44q24 102 134 202l39 -46q-118 -99 -118 -192zM138 636l60 -61
l-60 -60l-20 20l-40 40zM303 636l60 -61l-60 -60l-20 20l-40 40z" />
    <glyph glyph-name="uni0629.fina" unicode="&#x629;" horiz-adv-x="470" arabic-form="final" 
d="M358 198q5 -50 15.5 -77.5t32 -39t58.5 -11.5h13l3 -35l-3 -35h-13q-77 0 -117.5 44.5t-50.5 144.5q-2 23 -5 51.5t-6 60.5q-4 36 -16 151l63 12q17 -183 26 -266zM217 54q-77 0 -126.5 35t-49.5 94q0 71 68.5 125t180.5 89l14 -66q-83 -22 -141 -60t-61 -74
q-3 -32 27.5 -52.5t82.5 -20.5q51 0 107 20l16 -70q-59 -20 -118 -20zM167 646l60 -61l-60 -60l-20 20l-40 40zM332 646l60 -61l-60 -60l-20 20l-40 40z" />
    <glyph glyph-name="uni06C3.fina" unicode="&#x6c3;" horiz-adv-x="522" 
d="M528 70l3 -35l-3 -35h-7q-96 0 -162.5 58t-108.5 144q-31 -11 -64 -42t-59 -76t-35 -97l-45 30q8 57 37.5 108.5t69.5 88.5t78 53q14 7 28 7q25 0 44 -31q26 -49 52.5 -85t67.5 -62t96 -26h8zM183 463l60 -61l-60 -60l-20 20l-40 40zM348 463l60 -61l-60 -60l-20 20
l-40 40z" />
    <glyph glyph-name="uni0648" unicode="&#x648;" horiz-adv-x="439" arabic-form="isolated" 
d="M264.5 -125.5q77.5 62.5 77.5 155.5q-1 59 -16.5 120.5t-46 102.5t-73.5 41q-23 0 -45 -21.5t-35.5 -53.5t-13.5 -61q0 -25 10 -42q16 -26 54 -38t89 -12q47 0 94 10v-68q-46 -12 -99 -12q-63 0 -114.5 19t-74.5 62q-15 29 -15 72q0 50 21 100t56.5 82.5t75.5 32.5
q59 0 102 -52t65 -128.5t22 -148.5q0 -120 -91.5 -203t-257.5 -117l-19 63q157 34 234.5 96.5z" />
    <glyph glyph-name="uni0648.fina" unicode="&#x648;" horiz-adv-x="431" arabic-form="final" 
d="M268.5 -125.5q77.5 62.5 77.5 155.5q0 59 -15.5 120.5t-46.5 102.5t-75 41q-23 0 -45 -21t-35.5 -52.5t-13.5 -60.5q0 -25 11 -42q18 -29 79.5 -39t149.5 -10l83 1l4 -35l-4 -35l-109 -1q-99 0 -163.5 16t-90.5 64q-16 31 -16 72q0 49 21.5 99t57 82t75.5 32
q59 0 102 -52t65 -128.5t22 -148.5q0 -120 -91.5 -203t-257.5 -117l-19 63q157 34 234.5 96.5z" />
    <glyph glyph-name="uni0624" unicode="&#x624;" horiz-adv-x="439" arabic-form="isolated" 
d="M264.5 -125.5q77.5 62.5 77.5 155.5q-1 59 -16.5 120.5t-46 102.5t-73.5 41q-23 0 -45 -21.5t-35.5 -53.5t-13.5 -61q0 -25 10 -42q16 -26 54 -38t89 -12q47 0 94 10v-68q-46 -12 -99 -12q-63 0 -114.5 19t-74.5 62q-15 29 -15 72q0 50 21 100t56.5 82.5t75.5 32.5
q59 0 102 -52t65 -128.5t22 -148.5q0 -120 -91.5 -203t-257.5 -117l-19 63q157 34 234.5 96.5zM156 484q-29 26 -29 62q0 30 19 55.5t49 32.5q12 3 25 3q16 0 34 -4.5t32 -8.5l-11 -43q-34 12 -54 12q-28 0 -44.5 -17.5t-11.5 -38.5q3 -16 22.5 -29t45.5 -13l-7 -41
q-41 4 -70 30zM98 454l210 69v-44l-210 -68v43z" />
    <glyph glyph-name="uni0624.fina" unicode="&#x624;" horiz-adv-x="431" arabic-form="final" 
d="M268.5 -125.5q77.5 62.5 77.5 155.5q0 59 -15.5 120.5t-46.5 102.5t-75 41q-23 0 -45 -21t-35.5 -52.5t-13.5 -60.5q0 -25 11 -42q18 -29 79.5 -39t149.5 -10l83 1l4 -35l-4 -35l-109 -1q-99 0 -163.5 16t-90.5 64q-16 31 -16 72q0 49 21.5 99t57 82t75.5 32
q59 0 102 -52t65 -128.5t22 -148.5q0 -120 -91.5 -203t-257.5 -117l-19 63q157 34 234.5 96.5zM156 484q-29 26 -29 62q0 30 19 55.5t49 32.5q12 3 25 3q16 0 34 -4.5t32 -8.5l-11 -43q-34 12 -54 12q-28 0 -44.5 -17.5t-11.5 -38.5q3 -16 22.5 -29t45.5 -13l-7 -41
q-41 4 -70 30zM98 454l210 69v-44l-210 -68v43z" />
    <glyph glyph-name="uni06C6" unicode="&#x6c6;" horiz-adv-x="439" arabic-form="isolated" 
d="M264.5 -125.5q77.5 62.5 77.5 155.5q-1 59 -16.5 120.5t-46 102.5t-73.5 41q-23 0 -45 -21.5t-35.5 -53.5t-13.5 -61q0 -25 10 -42q16 -26 54 -38t89 -12q47 0 94 10v-68q-46 -12 -99 -12q-63 0 -114.5 19t-74.5 62q-15 29 -15 72q0 50 21 100t56.5 82.5t75.5 32.5
q59 0 102 -52t65 -128.5t22 -148.5q0 -120 -91.5 -203t-257.5 -117l-19 63q157 34 234.5 96.5zM225 449l-34 -14q-10 33 -30.5 72.5t-41.5 69.5l28 26q15 -20 31.5 -49.5t27.5 -58.5q11 31 26.5 63t30.5 54l30 -25q-47 -69 -68 -138z" />
    <glyph glyph-name="uni06C6.fina" unicode="&#x6c6;" horiz-adv-x="431" arabic-form="final" 
d="M268.5 -125.5q77.5 62.5 77.5 155.5q0 59 -15.5 120.5t-46.5 102.5t-75 41q-23 0 -45 -21t-35.5 -52.5t-13.5 -60.5q0 -25 11 -42q18 -29 79.5 -39t149.5 -10l83 1l4 -35l-4 -35l-109 -1q-99 0 -163.5 16t-90.5 64q-16 31 -16 72q0 49 21.5 99t57 82t75.5 32
q59 0 102 -52t65 -128.5t22 -148.5q0 -120 -91.5 -203t-257.5 -117l-19 63q157 34 234.5 96.5zM225 448l-34 -14q-10 33 -30.5 72.5t-41.5 69.5l28 26q15 -20 31.5 -49.5t27.5 -58.5q11 31 26.5 63t30.5 54l30 -25q-47 -69 -68 -138z" />
    <glyph glyph-name="uni06C7" unicode="&#x6c7;" horiz-adv-x="439" arabic-form="isolated" 
d="M264.5 -125.5q77.5 62.5 77.5 155.5q-1 59 -16.5 120.5t-46 102.5t-73.5 41q-23 0 -45 -21.5t-35.5 -53.5t-13.5 -61q0 -25 10 -42q16 -26 54 -38t89 -12q47 0 94 10v-68q-46 -12 -99 -12q-63 0 -114.5 19t-74.5 62q-15 29 -15 72q0 50 21 100t56.5 82.5t75.5 32.5
q59 0 102 -52t65 -128.5t22 -148.5q0 -120 -91.5 -203t-257.5 -117l-19 63q157 34 234.5 96.5zM203.5 480.5q38.5 12.5 63.5 43.5q20 25 20 56q0 23 -12.5 40.5t-32.5 17.5q-17 0 -30.5 -13t-13.5 -31q0 -23 24 -37.5t65 -12.5l-1 -34q-18 -2 -27 -2q-43 0 -69 22t-26 60
q0 35 25 60t56 25q11 0 21 -3q27 -8 41 -31.5t14 -54.5q0 -47 -28 -85q-27 -37 -72 -54.5t-94 -21.5l-10 40q48 3 86.5 15.5z" />
    <glyph glyph-name="uni06C7.fina" unicode="&#x6c7;" horiz-adv-x="431" arabic-form="final" 
d="M268.5 -125.5q77.5 62.5 77.5 155.5q0 59 -15.5 120.5t-46.5 102.5t-75 41q-23 0 -45 -21t-35.5 -52.5t-13.5 -60.5q0 -25 11 -42q18 -29 79.5 -39t149.5 -10l83 1l4 -35l-4 -35l-109 -1q-99 0 -163.5 16t-90.5 64q-16 31 -16 72q0 49 21.5 99t57 82t75.5 32
q59 0 102 -52t65 -128.5t22 -148.5q0 -120 -91.5 -203t-257.5 -117l-19 63q157 34 234.5 96.5zM204.5 481.5q38.5 12.5 63.5 43.5q20 25 20 56q0 23 -12.5 40.5t-32.5 17.5q-17 0 -30.5 -13t-13.5 -31q0 -23 24 -37.5t65 -12.5l-1 -34q-18 -2 -27 -2q-43 0 -69 22t-26 60
q0 35 25 60t56 25q11 0 21 -3q27 -8 41 -31.5t14 -54.5q0 -47 -28 -85q-27 -37 -72 -54.5t-94 -21.5l-10 40q48 3 86.5 15.5z" />
    <glyph glyph-name="uni06C9.fina" unicode="&#x6c9;" horiz-adv-x="431" arabic-form="final" 
d="M268.5 -125.5q77.5 62.5 77.5 155.5q0 59 -15.5 120.5t-46.5 102.5t-75 41q-23 0 -45 -21t-35.5 -52.5t-13.5 -60.5q0 -25 11 -42q18 -29 79.5 -39t149.5 -10l83 1l4 -35l-4 -35l-109 -1q-99 0 -163.5 16t-90.5 64q-16 31 -16 72q0 49 21.5 99t57 82t75.5 32
q59 0 102 -52t65 -128.5t22 -148.5q0 -120 -91.5 -203t-257.5 -117l-19 63q157 34 234.5 96.5zM241.5 479q-15.5 32 -26.5 63q-11 -29 -27.5 -58.5t-31.5 -49.5l-28 26q21 30 41.5 69.5t30.5 72.5l34 -14q21 -69 68 -138l-30 -25q-15 22 -30.5 54z" />
    <glyph glyph-name="uni0649" unicode="&#x649;" horiz-adv-x="723" arabic-form="isolated" 
d="M102 39q0 -97 60 -151t166 -54q76 0 133 25.5t90 63t39 73.5q1 10 -24.5 21t-97.5 28q-78 19 -109 43t-31 71q0 72 37 135.5t98 101.5t129 38q25 0 49 -5.5t40 -15.5l-23 -62q-11 6 -29.5 9.5t-36.5 3.5q-54 0 -100.5 -28.5t-74.5 -73t-28 -89.5q0 -15 8.5 -25t32.5 -19
t71 -21q63 -15 94.5 -28t43.5 -29t12 -42q0 -57 -41 -114t-115 -94t-167 -37q-83 0 -148.5 33t-102 93.5t-36.5 141.5q0 60 19 126t45 119l54 -25q-57 -121 -57 -213z" />
    <glyph glyph-name="uni0649.fina" unicode="&#x649;" horiz-adv-x="716" arabic-form="final" 
d="M182 -243q-67 33 -104.5 93.5t-37.5 141.5q0 60 19.5 126t45.5 120l54 -26q-57 -121 -57 -213q0 -98 61.5 -151t170.5 -53q63 0 119 16.5t91.5 41t39.5 45.5q-4 21 -66.5 62.5t-140.5 75.5l15 66q67 -14 145 -23t146 -9h39l4 -35l-4 -35h-39q-69 0 -152 10.5t-152 24.5
l16 48l20 -10q104 -47 168 -89t62 -88q-2 -44 -45 -84t-113.5 -64t-152.5 -24q-85 0 -152 33z" />
    <glyph glyph-name="uni064A" unicode="&#x64a;" horiz-adv-x="723" arabic-form="isolated" 
d="M102 39q0 -97 60 -151t166 -54q76 0 133 25.5t90 63t39 73.5q1 10 -24.5 21t-97.5 28q-78 19 -109 43t-31 71q0 72 37 135.5t98 101.5t129 38q25 0 49 -5.5t40 -15.5l-23 -62q-11 6 -29.5 9.5t-36.5 3.5q-54 0 -100.5 -28.5t-74.5 -73t-28 -89.5q0 -15 8.5 -25t32.5 -19
t71 -21q63 -15 94.5 -28t43.5 -29t12 -42q0 -57 -41 -114t-115 -94t-167 -37q-83 0 -148.5 33t-102 93.5t-36.5 141.5q0 60 19 126t45 119l54 -25q-57 -121 -57 -213zM248 -278l60 -61l-60 -60l-20 20l-40 40zM413 -278l60 -61l-60 -60l-20 20l-40 40z" />
    <glyph glyph-name="uni064A.fina" unicode="&#x64a;" horiz-adv-x="716" arabic-form="final" 
d="M182 -243q-67 33 -104.5 93.5t-37.5 141.5q0 60 19.5 126t45.5 120l54 -26q-57 -121 -57 -213q0 -98 61.5 -151t170.5 -53q63 0 119 16.5t91.5 41t39.5 45.5q-4 21 -66.5 62.5t-140.5 75.5l15 66q67 -14 145 -23t146 -9h39l4 -35l-4 -35h-39q-69 0 -152 10.5t-152 24.5
l16 48l20 -10q104 -47 168 -89t62 -88q-2 -44 -45 -84t-113.5 -64t-152.5 -24q-85 0 -152 33zM251 -341l60 -61l-60 -60l-20 20l-40 40zM416 -341l60 -61l-60 -60l-20 20l-40 40z" />
    <glyph glyph-name="uni064A.medi" unicode="&#x64a;" horiz-adv-x="390" arabic-form="medial" 
d="M-5 70h7q79 0 122.5 7t64.5 20t32 36q8 17 8 53q0 44 -11 112l59 12q8 -43 10.5 -93t1.5 -69q6 -39 31 -58.5t67 -19.5h9l3 -35l-3 -35h-9q-52 0 -90.5 29t-48.5 77h20q-11 -41 -40.5 -64t-83 -32.5t-142.5 -9.5h-7v70zM10 -100l60 -61l-60 -60l-20 20l-40 40zM175 -100
l60 -61l-60 -60l-20 20l-40 40z" />
    <glyph glyph-name="uni064A.init" unicode="&#x64a;" horiz-adv-x="339" arabic-form="initial" 
d="M-6 70h38q110 0 157 23t47 73q0 33 -19 95t-34 97l57 30q19 -41 38.5 -106t19.5 -112q0 -170 -259 -170h-45v70zM6 -102l60 -61l-60 -60l-20 20l-40 40zM171 -102l60 -61l-60 -60l-20 20l-40 40z" />
    <glyph glyph-name="uni0626" unicode="&#x626;" horiz-adv-x="723" arabic-form="isolated" 
d="M102 39q0 -97 60 -151t166 -54q76 0 133 25.5t90 63t39 73.5q1 10 -24.5 21t-97.5 28q-78 19 -109 43t-31 71q0 72 37 135.5t98 101.5t129 38q25 0 49 -5.5t40 -15.5l-23 -62q-11 6 -29.5 9.5t-36.5 3.5q-54 0 -100.5 -28.5t-74.5 -73t-28 -89.5q0 -15 8.5 -25t32.5 -19
t71 -21q63 -15 94.5 -28t43.5 -29t12 -42q0 -57 -41 -114t-115 -94t-167 -37q-83 0 -148.5 33t-102 93.5t-36.5 141.5q0 60 19 126t45 119l54 -25q-57 -121 -57 -213zM186 406q-29 26 -29 62q0 30 19 55.5t49 32.5q12 3 25 3q16 0 34 -4.5t32 -8.5l-11 -43q-34 12 -54 12
q-28 0 -44.5 -17.5t-11.5 -38.5q3 -16 22.5 -29t45.5 -13l-7 -41q-41 4 -70 30zM128 376l210 69v-44l-210 -68v43z" />
    <glyph glyph-name="uni0626.fina" unicode="&#x626;" horiz-adv-x="716" arabic-form="final" 
d="M182 -243q-67 33 -104.5 93.5t-37.5 141.5q0 60 19.5 126t45.5 120l54 -26q-57 -121 -57 -213q0 -98 61.5 -151t170.5 -53q63 0 119 16.5t91.5 41t39.5 45.5q-4 21 -66.5 62.5t-140.5 75.5l15 66q67 -14 145 -23t146 -9h39l4 -35l-4 -35h-39q-69 0 -152 10.5t-152 24.5
l16 48l20 -10q104 -47 168 -89t62 -88q-2 -44 -45 -84t-113.5 -64t-152.5 -24q-85 0 -152 33zM190 353q-29 26 -29 62q0 30 19 55.5t49 32.5q12 3 25 3q16 0 34 -4.5t32 -8.5l-11 -43q-34 12 -54 12q-28 0 -44.5 -17.5t-11.5 -38.5q3 -16 22.5 -29t45.5 -13l-7 -41
q-41 4 -70 30zM132 323l210 69v-44l-210 -68v43z" />
    <glyph glyph-name="uni0626.medi" unicode="&#x626;" horiz-adv-x="338" arabic-form="medial" 
d="M-5 70h7q72 1 111 16t55 48q8 17 8 53q0 43 -11 111l59 12q8 -43 10.5 -93t1.5 -69q6 -38 32 -58t66 -20h9l4 -35l-4 -35h-9q-52 0 -90 29t-48 77h19q-17 -57 -69 -81.5t-144 -24.5h-7v70zM76 447q-29 26 -29 62q0 30 19 55.5t49 32.5q12 3 25 3q16 0 34 -4.5t32 -8.5
l-11 -43q-34 12 -54 12q-28 0 -44.5 -17.5t-11.5 -38.5q3 -16 22.5 -29t45.5 -13l-7 -41q-41 4 -70 30zM18 417l210 69v-44l-210 -68v43z" />
    <glyph glyph-name="uni0626.init" unicode="&#x626;" horiz-adv-x="311" arabic-form="initial" 
d="M-5 70h52q84 0 122.5 24t38.5 74q-1 34 -20 95.5t-34 94.5l57 30q19 -40 39 -108t20 -115q-1 -82 -58.5 -123.5t-164.5 -41.5h-52v70zM64 498q-29 26 -29 62q0 30 19 55.5t49 32.5q12 3 25 3q16 0 34 -4.5t32 -8.5l-11 -43q-34 12 -54 12q-28 0 -44.5 -17.5t-11.5 -38.5
q3 -16 22.5 -29t45.5 -13l-7 -41q-41 4 -70 30zM6 468l210 69v-44l-210 -68v43z" />
    <glyph glyph-name="uni06CE.init" unicode="&#x6ce;" horiz-adv-x="339" 
d="M192 474l-34 -14q-10 33 -30.5 72.5t-41.5 69.5l28 26q15 -20 31.5 -49.5t27.5 -58.5q11 31 26.5 63t30.5 54l30 -25q-47 -69 -68 -138zM-6 70h38q110 0 157 23t47 73q0 33 -19 95t-34 97l57 30q19 -41 38.5 -106t19.5 -112q0 -170 -259 -170h-45v70zM6 -102l60 -61
l-60 -60l-20 20l-40 40zM171 -102l60 -61l-60 -60l-20 20l-40 40z" />
    <glyph glyph-name="uni06CE.medi" unicode="&#x6ce;" horiz-adv-x="390" 
d="M179 366l-34 -14q-10 33 -30.5 72.5t-41.5 69.5l28 26q15 -20 31.5 -49.5t27.5 -58.5q11 31 26.5 63t30.5 54l30 -25q-47 -69 -68 -138zM-5 70h7q79 0 122.5 7t64.5 20t32 36q8 17 8 53q0 44 -11 112l59 12q8 -43 10.5 -93t1.5 -69q6 -39 31 -58.5t67 -19.5h9l3 -35
l-3 -35h-9q-52 0 -90.5 29t-48.5 77h20q-11 -41 -40.5 -64t-83 -32.5t-142.5 -9.5h-7v70zM10 -100l60 -61l-60 -60l-20 20l-40 40zM175 -100l60 -61l-60 -60l-20 20l-40 40z" />
    <glyph glyph-name="uni06CE.fina" unicode="&#x6ce;" horiz-adv-x="716" 
d="M182 -243q-67 33 -104.5 93.5t-37.5 141.5q0 60 19.5 126t45.5 120l54 -26q-57 -121 -57 -213q0 -98 61.5 -151t170.5 -53q63 0 119 16.5t91.5 41t39.5 45.5q-4 21 -66.5 62.5t-140.5 75.5l15 66q67 -14 145 -23t146 -9h39l4 -35l-4 -35h-39q-69 0 -152 10.5t-152 24.5
l16 48l20 -10q104 -47 168 -89t62 -88q-2 -44 -45 -84t-113.5 -64t-152.5 -24q-85 0 -152 33zM304 238l-34 -14q-10 33 -30.5 72.5t-41.5 69.5l28 26q15 -20 31.5 -49.5t27.5 -58.5q11 31 26.5 63t30.5 54l30 -25q-47 -69 -68 -138z" />
    <glyph glyph-name="uni06CC" unicode="&#x6cc;" horiz-adv-x="723" arabic-form="isolated" 
d="M102 39q0 -97 60 -151t166 -54q76 0 133 25.5t90 63t39 73.5q1 10 -24.5 21t-97.5 28q-78 19 -109 43t-31 71q0 72 37 135.5t98 101.5t129 38q25 0 49 -5.5t40 -15.5l-23 -62q-11 6 -29.5 9.5t-36.5 3.5q-54 0 -100.5 -28.5t-74.5 -73t-28 -89.5q0 -15 8.5 -25t32.5 -19
t71 -21q63 -15 94.5 -28t43.5 -29t12 -42q0 -57 -41 -114t-115 -94t-167 -37q-83 0 -148.5 33t-102 93.5t-36.5 141.5q0 60 19 126t45 119l54 -25q-57 -121 -57 -213z" />
    <glyph glyph-name="uni06CC.fina" unicode="&#x6cc;" horiz-adv-x="716" arabic-form="final" 
d="M182 -243q-67 33 -104.5 93.5t-37.5 141.5q0 60 19.5 126t45.5 120l54 -26q-57 -121 -57 -213q0 -98 61.5 -151t170.5 -53q63 0 119 16.5t91.5 41t39.5 45.5q-4 21 -66.5 62.5t-140.5 75.5l15 66q67 -14 145 -23t146 -9h39l4 -35l-4 -35h-39q-69 0 -152 10.5t-152 24.5
l16 48l20 -10q104 -47 168 -89t62 -88q-2 -44 -45 -84t-113.5 -64t-152.5 -24q-85 0 -152 33z" />
    <glyph glyph-name="uni06CC.medi" unicode="&#x6cc;" horiz-adv-x="390" arabic-form="medial" 
d="M-5 70h7q79 0 122.5 7t64.5 20t32 36q8 17 8 53q0 44 -11 112l59 12q8 -43 10.5 -93t1.5 -69q6 -39 31 -58.5t67 -19.5h9l3 -35l-3 -35h-9q-52 0 -90.5 29t-48.5 77h20q-11 -41 -40.5 -64t-83 -32.5t-142.5 -9.5h-7v70zM10 -100l60 -61l-60 -60l-20 20l-40 40zM175 -100
l60 -61l-60 -60l-20 20l-40 40z" />
    <glyph glyph-name="uni06CC.init" unicode="&#x6cc;" horiz-adv-x="339" arabic-form="initial" 
d="M-6 70h38q110 0 157 23t47 73q0 33 -19 95t-34 97l57 30q19 -41 38.5 -106t19.5 -112q0 -170 -259 -170h-45v70zM6 -102l60 -61l-60 -60l-20 20l-40 40zM171 -102l60 -61l-60 -60l-20 20l-40 40z" />
    <glyph glyph-name="uni06D5.fina" unicode="&#x6d5;" horiz-adv-x="470" 
d="M358 198q5 -50 15.5 -77.5t32 -39t58.5 -11.5h13l3 -35l-3 -35h-13q-77 0 -117.5 44.5t-50.5 144.5q-2 23 -5 51.5t-6 60.5q-4 36 -16 151l63 12q17 -183 26 -266zM217 54q-77 0 -126.5 35t-49.5 94q0 71 68.5 125t180.5 89l14 -66q-83 -22 -141 -60t-61 -74
q-3 -32 27.5 -52.5t82.5 -20.5q51 0 107 20l16 -70q-59 -20 -118 -20z" />
    <glyph glyph-name="uniFDFC" unicode="&#xfdfc;" horiz-adv-x="1341" arabic-form="isolated" 
d="M1097 -76.5q57 32.5 92 73.5t39 79q1 7 1 27q0 41 -6 106t-15 126l62 13q21 -124 21 -224q0 -32 -3 -56q-7 -57 -48 -110t-106 -91t-141 -53l-18 64q65 13 122 45.5zM702 -212q-70 0 -120 6l13 59q47 -5 95 -5q111 0 203 17l16 -62q-91 -15 -207 -15zM673 675
q39 0 44 -48q2 -48 16 -393l1 -36q2 -71 9 -102t31.5 -46t81.5 -15q102 0 143.5 23.5t41.5 71.5q0 40 -18 97.5t-35 95.5l56 30q19 -41 38.5 -108t19.5 -114q0 -84 -60.5 -125.5t-193.5 -41.5q-75 0 -112 23.5t-50 70t-16 134.5q-2 45 -6 176q-7 200 -9 245l-119 -24l9 -212
l12 -277q12 -320 -259 -320q-73 0 -129 30.5t-87.5 86.5t-31.5 130q0 97 62 219l54 -27q-56 -112 -56 -191q0 -84 49.5 -131t138.5 -47q108 0 156 58t42 189q-13 313 -25 480l41 67l146 30q5 1 15 1z" />
    <glyph glyph-name=".notdef" horiz-adv-x="255" 
d="M38 429h179v-433h-179v433zM208 4v417h-161v-417h161z" />
    <glyph glyph-name=".null" 
 />
    <glyph glyph-name="nonmarkingreturn" unicode="&#xd;" horiz-adv-x="255" 
 />
    <glyph glyph-name="space" unicode=" " horiz-adv-x="350" 
 />
    <glyph glyph-name="A" unicode="A" horiz-adv-x="634" 
d="M474 195h-315l-71 -195h-73l269 711h65l271 -711h-74zM182 255h270l-135 368z" />
    <glyph glyph-name="B" unicode="B" horiz-adv-x="616" 
d="M88 0v711h217q115 0 173.5 -47.5t58.5 -139.5q0 -55 -29.5 -94.5t-82.5 -57.5q61 -13 98 -60t37 -110q0 -95 -61 -148.5t-171 -53.5h-240zM159 339v-279h172q73 0 115.5 37.5t42.5 103.5t-40 102t-114 36h-176zM159 398h151q74 0 114.5 33t40.5 94q0 64 -39 94.5
t-119 31.5h-148v-253z" />
    <glyph glyph-name="C" unicode="C" horiz-adv-x="650" 
d="M516.5 50.5q-68.5 -60.5 -183.5 -60.5q-72 0 -133.5 36t-99.5 109t-38 179v83q0 99 35 172t98 112.5t144 39.5q112 0 179.5 -62t78.5 -173h-71q-12 89 -58.5 132t-128.5 43q-96 0 -150.5 -70.5t-54.5 -196.5v-81q0 -79 24.5 -138.5t69.5 -92t105 -32.5q87 0 133.5 41
t59.5 132h71q-12 -112 -80.5 -172.5z" />
    <glyph glyph-name="D" unicode="D" horiz-adv-x="655" 
d="M88 0v711h199q80 0 150 -36.5t113.5 -110.5t43.5 -181v-56q0 -99 -39 -173t-109 -114t-161 -40h-197zM159 651v-591h122q66 0 121 29t88 89t33 149v58q0 70 -24 129.5t-76.5 97t-132.5 39.5h-131z" />
    <glyph glyph-name="E" unicode="E" horiz-adv-x="568" 
d="M483 337h-324v-277h374v-60h-445v711h441v-60h-370v-255h324v-59z" />
    <glyph glyph-name="F" unicode="F" horiz-adv-x="559" 
d="M479 326h-320v-326h-71v711h440v-60h-369v-265h320v-60z" />
    <glyph glyph-name="G" unicode="G" horiz-adv-x="683" 
d="M505.5 15.5q-65.5 -25.5 -149.5 -25.5q-83 0 -148.5 39.5t-102.5 112.5t-38 171v82q0 99 33 172.5t95.5 113.5t150.5 40q110 0 177 -56t81 -157h-71q-14 76 -60.5 114.5t-125.5 38.5q-99 0 -153.5 -69.5t-54.5 -195.5v-76q0 -82 27 -143t76 -94t114 -33q60 0 106.5 15
t70.5 43v176h-181v59h252v-256q-33 -46 -98.5 -71.5z" />
    <glyph glyph-name="H" unicode="H" horiz-adv-x="709" 
d="M621 0h-72v337h-390v-337h-71v711h71v-315h390v315h72v-711z" />
    <glyph glyph-name="I" unicode="I" horiz-adv-x="268" 
d="M170 0h-72v711h72v-711z" />
    <glyph glyph-name="J" unicode="J" horiz-adv-x="551" 
d="M396 711h72v-500q0 -103 -59 -162t-159 -59q-104 0 -161 54t-57 152h71q0 -70 37.5 -108t109.5 -38q65 0 105 42.5t41 115.5v503z" />
    <glyph glyph-name="K" unicode="K" horiz-adv-x="630" 
d="M255 345l-96 -95v-250h-71v711h71v-372l86 92l262 280h88l-292 -316l315 -395h-87z" />
    <glyph glyph-name="L" unicode="L" horiz-adv-x="531" 
d="M160 60h346v-60h-418v711h72v-651z" />
    <glyph glyph-name="M" unicode="M" horiz-adv-x="868" 
d="M181 711l252 -611l253 611h94v-711h-72v244l6 364l-253 -608h-55l-253 605l6 -360v-245h-71v711h93z" />
    <glyph glyph-name="N" unicode="N" horiz-adv-x="711" 
d="M623 0h-72l-391 587v-587h-72v711h72l392 -588v588h71v-711z" />
    <glyph glyph-name="O" unicode="O" horiz-adv-x="681" 
d="M585 145q-35 -75 -98.5 -115t-146.5 -40q-82 0 -145 40t-98.5 114.5t-36.5 174.5v69q0 102 35.5 177.5t99 115.5t145.5 40q83 0 146.5 -40t98.5 -115.5t35 -177.5v-65q0 -103 -35 -178zM493.5 587q-55.5 71 -153.5 71q-96 0 -152 -71t-57 -195v-69q0 -84 25.5 -145
t73 -93.5t110.5 -32.5q98 0 153 70t56 197v70q0 127 -55.5 198z" />
    <glyph glyph-name="P" unicode="P" horiz-adv-x="621" 
d="M159 285v-285h-71v711h249q113 0 177.5 -57.5t64.5 -156.5q0 -101 -63 -156t-179 -56h-178zM159 346h178q82 0 126.5 39t44.5 111q0 71 -44.5 112.5t-123.5 42.5h-181v-305z" />
    <glyph glyph-name="Q" unicode="Q" horiz-adv-x="681" 
d="M582.5 146.5q-34.5 -74.5 -98.5 -115.5l129 -109l-49 -45l-147 124q-39 -11 -79 -11q-82 0 -145.5 40t-99.5 114.5t-36 174.5v69q0 101 35.5 176.5t99 116t145.5 40.5q83 0 146.5 -40t98.5 -115t35 -178v-64q0 -103 -34.5 -177.5zM491 587q-55 71 -154 71
q-96 0 -151.5 -71t-56.5 -195v-69q0 -126 56 -198.5t153 -72.5q98 0 152.5 70t55.5 197v68q0 129 -55 200z" />
    <glyph glyph-name="R" unicode="R" horiz-adv-x="629" 
d="M351 293h-193v-293h-72v711h233q117 0 180.5 -54.5t63.5 -156.5q0 -68 -39 -119.5t-105 -71.5l175 -303v-6h-76zM158 353h171q73 0 118 41t45 106q0 72 -45 111t-127 40h-162v-298z" />
    <glyph glyph-name="S" unicode="S" horiz-adv-x="600" 
d="M473.5 233.5q-12.5 24.5 -41.5 43.5q-25 16 -54.5 27t-75.5 25q-9 3 -49.5 15.5t-72.5 29.5q-57 30 -84 69t-27 92q0 54 30.5 96.5t85 66.5t124.5 24q66 0 122.5 -25.5t90 -74t33.5 -114.5h-72q0 70 -47 112t-127 42q-78 0 -123 -34t-45 -92t55 -92q25 -17 52.5 -27
t74.5 -25q45 -13 77 -24.5t61 -29.5q50 -29 74 -68t24 -91q0 -49 -27 -92t-82.5 -69.5t-136.5 -26.5q-69 0 -130 24.5t-99 73t-38 117.5h72q0 -71 53 -112.5t142 -41.5q80 0 126.5 34t46.5 92q0 31 -12.5 55.5z" />
    <glyph glyph-name="T" unicode="T" horiz-adv-x="597" 
d="M573 651h-239v-651h-71v651h-238v60h548v-60z" />
    <glyph glyph-name="U" unicode="U" horiz-adv-x="654" 
d="M581 711v-483q0 -105 -66.5 -168.5t-186.5 -69.5q-116 0 -184 63t-69 174v484h71v-482q0 -84 48.5 -131.5t133.5 -47.5t133 47.5t48 132.5v481h72z" />
    <glyph glyph-name="V" unicode="V" horiz-adv-x="623" 
d="M298 133l14 -41l13 40l206 579h79l-265 -711h-66l-264 711h78z" />
    <glyph glyph-name="W" unicode="W" horiz-adv-x="893" 
d="M629 197l24 -96l21 103l122 507h73l-179 -711h-67l-156 543l-16 61l-15 -61l-161 -543h-66l-179 711h72l124 -508l20 -102l24 96l150 514h62z" />
    <glyph glyph-name="X" unicode="X" horiz-adv-x="617" 
d="M309 420l190 291h85l-232 -351l239 -360h-86l-196 299l-197 -299h-85l239 360l-232 351h84z" />
    <glyph glyph-name="Y" unicode="Y" horiz-adv-x="600" 
d="M298 334l207 377h82l-253 -444v-267h-71v267l-253 444h84z" />
    <glyph glyph-name="Z" unicode="Z" horiz-adv-x="599" 
d="M129 60h428v-60h-514v54l412 597h-401v60h487v-52z" />
    <glyph glyph-name="a" unicode="a" horiz-adv-x="539" 
d="M393 70q-65 -80 -170 -80q-50 0 -89.5 19.5t-61.5 54t-22 78.5q0 79 64 124t176 46h102v53q0 54 -33 85t-95 31q-57 0 -94.5 -28.5t-37.5 -70.5l-70 1q0 40 27 75.5t74 57.5t104 22q89 0 141 -44.5t53 -123.5v-246q0 -77 17 -117v-7h-73q-7 18 -12 70zM328.5 77
q43.5 26 63.5 69v114h-88q-86 0 -135 -27.5t-49 -82.5q0 -44 31.5 -71.5t81.5 -27.5q52 0 95.5 26z" />
    <glyph glyph-name="b" unicode="b" horiz-adv-x="556" 
d="M482 117q-25 -61 -71 -94t-107 -33q-53 0 -95 20t-69 58l-3 -68h-64v750h69v-293q56 81 161 81q95 0 149.5 -72.5t54.5 -198.5v-9q0 -80 -25 -141zM398 423q-39 55 -110 55q-105 0 -146 -101v-232q21 -47 58 -71t89 -24q71 0 109.5 55.5t38.5 163.5q0 99 -39 154z" />
    <glyph glyph-name="c" unicode="c" horiz-adv-x="518" 
d="M370.5 80.5q39.5 32.5 43.5 84.5h66q-2 -47 -29.5 -87t-74 -64t-102.5 -24q-69 0 -120.5 32.5t-79.5 93t-28 142.5v16q0 79 28 139t79.5 92.5t120.5 32.5q58 0 103.5 -23.5t73 -66.5t29.5 -99h-66q-4 58 -43 94.5t-97 36.5q-75 0 -117 -54.5t-42 -154.5v-17
q0 -98 41.5 -152t117.5 -54q57 0 96.5 32.5z" />
    <glyph glyph-name="d" unicode="d" horiz-adv-x="558" 
d="M76.5 411q25.5 61 71.5 94t108 33q104 0 158 -78v290h69v-750h-64l-3 66q-27 -37 -68 -56.5t-93 -19.5q-61 0 -107 34t-71.5 97t-25.5 146t25.5 144zM120 258q0 -97 40 -152.5t110 -55.5q101 0 144 90v244q-42 94 -143 94q-70 0 -109.5 -53t-40.5 -151q-1 -5 -1 -16z" />
    <glyph glyph-name="e" unicode="e" horiz-adv-x="521" 
d="M161 22q-54 32 -85.5 91.5t-31.5 137.5v18q0 72 28 133.5t80 98.5t120 37q99 0 155.5 -66.5t56.5 -184.5v-34h-370v-12q1 -56 24 -100t62 -68.5t86 -24.5q48 0 83.5 18.5t62.5 53.5l42 -33q-64 -97 -191 -97q-68 0 -122 32zM167.5 434q-42.5 -46 -51.5 -123h299v6
q-3 74 -41 118.5t-102 44.5q-62 0 -104.5 -46z" />
    <glyph glyph-name="f" unicode="f" horiz-adv-x="336" 
d="M117 0v472h-87v56h87v62q0 81 42.5 125.5t119.5 44.5q30 0 62 -8l-5 -57q-27 5 -52 5q-47 0 -73 -28.5t-26 -80.5v-63h122v-56h-122v-472h-68z" />
    <glyph glyph-name="g" unicode="g" horiz-adv-x="557" 
d="M76.5 414q25.5 60 72 92t107.5 32q106 0 160 -81l4 71h63v-516q0 -103 -58 -162.5t-158 -59.5q-56 0 -106.5 24.5t-80.5 66.5l37 42q60 -75 146 -75q71 0 110.5 41.5t40.5 115.5v58q-27 -36 -67.5 -54.5t-91.5 -18.5q-61 0 -107 33.5t-71.5 96.5t-25.5 147v7
q0 80 25.5 140zM160.5 105.5q39.5 -55.5 109.5 -55.5q51 0 87.5 23.5t56.5 68.5v240q-42 96 -143 96q-72 0 -111 -56t-39 -164q0 -97 39.5 -152.5z" />
    <glyph glyph-name="h" unicode="h" horiz-adv-x="550" 
d="M214 514q43 24 95 24q168 0 169 -190v-348h-69v349q-1 66 -29.5 97.5t-88.5 31.5q-52 0 -91 -31t-57 -84v-363h-70v750h70v-306q28 46 71 70z" />
    <glyph glyph-name="i" unicode="i" horiz-adv-x="231" 
d="M150 0h-69v528h69v-528zM84 708q12 13 32 13t32.5 -12.5t12.5 -31.5t-12 -31t-33 -12q-20 0 -32 12t-12 30q0 19 12 32z" />
    <glyph glyph-name="j" unicode="j" horiz-adv-x="232" 
d="M147 528v-590q0 -75 -35.5 -113t-103.5 -38q-26 0 -53 8l1 58q18 -6 43 -6q40 0 59.5 21.5t19.5 68.5v591h69zM80 708q12 13 32 13t32.5 -12.5t12.5 -31.5t-12 -31t-33 -12t-32.5 11.5t-11.5 30.5t12 32z" />
    <glyph glyph-name="k" unicode="k" horiz-adv-x="496" 
d="M206 258l-63 -61v-197h-69v750h69v-470l53 58l190 190h85l-218 -222l239 -306h-82z" />
    <glyph glyph-name="l" unicode="l" horiz-adv-x="231" 
d="M150 0h-69v750h69v-750z" />
    <glyph glyph-name="m" unicode="m" horiz-adv-x="883" 
d="M137 528l2 -80q28 44 71 67t96 23q120 0 155 -98q26 46 72 72t105 26q86 0 130.5 -47t44.5 -140v-351h-70v347q0 67 -29 99t-94 32q-61 0 -103 -42q-35 -35 -41 -85v-5v-346h-69v349q0 65 -30.5 97t-92.5 32q-58 0 -98 -38q-31 -28 -46 -71v-369h-68v528h65z" />
    <glyph glyph-name="n" unicode="n" horiz-adv-x="550" 
d="M139 528l2 -85q29 46 72.5 70.5t95.5 24.5q168 0 169 -190v-348h-69v349q-1 66 -29.5 97.5t-88.5 31.5q-52 0 -91 -31t-57 -84v-363h-70v528h66z" />
    <glyph glyph-name="o" unicode="o" horiz-adv-x="563" 
d="M72.5 407q28.5 61 82.5 96t126 35t126 -34.5t83 -95.5t29 -139v-12q0 -80 -30.5 -140.5t-84.5 -93.5t-122 -33t-122 33t-85 94t-31 142v12q0 75 28.5 136zM134 149.5q21 -47.5 59 -74.5t89 -27q75 0 121 57.5t47 154.5v11q0 59 -20.5 107t-59.5 75t-89 27
q-74 0 -120.5 -58t-47.5 -155v-10q0 -60 21 -107.5z" />
    <glyph glyph-name="p" unicode="p" horiz-adv-x="556" 
d="M481 117.5q-25 -60.5 -71 -94t-107 -33.5q-104 0 -161 71v-264h-69v731h64l3 -70q57 80 162 80q95 0 149.5 -71.5t54.5 -199.5v-9q0 -80 -25 -140.5zM396 422q-41 56 -112 56q-49 0 -85 -23.5t-57 -69.5v-251q20 -42 56.5 -64t86.5 -22q70 0 110 54t41 158v9
q1 97 -40 153z" />
    <glyph glyph-name="q" unicode="q" horiz-adv-x="561" 
d="M106.5 466q55.5 72 151.5 72q104 0 158 -77l3 67h64v-731h-70v263q-27 -34 -66.5 -52t-89.5 -18q-63 0 -109.5 33.5t-71.5 95t-25 143.5v7q0 125 55.5 197zM160.5 104q40.5 -56 110.5 -56q100 0 142 86v255q-44 91 -141 91q-70 0 -110.5 -54.5t-41.5 -158.5v-9
q0 -98 40.5 -154z" />
    <glyph glyph-name="r" unicode="r" horiz-adv-x="337" 
d="M280 471q-52 0 -87 -27t-50 -79v-365h-70v528h68l1 -77q45 87 142 87q24 0 39 -6l-1 -64q-16 3 -42 3z" />
    <glyph glyph-name="s" unicode="s" horiz-adv-x="510" 
d="M355.5 201q-31.5 24 -105.5 40q-97 21 -140.5 56t-43.5 93q0 42 24 75.5t67.5 53t98.5 19.5q58 0 102.5 -20t69.5 -56.5t25 -83.5h-69q0 43 -36.5 72.5t-91.5 29.5q-57 0 -89 -24.5t-32 -63.5q0 -41 36 -61t99 -34q97 -21 141.5 -57.5t44.5 -99.5q0 -67 -54.5 -108.5
t-142.5 -41.5q-63 0 -111 22t-74 59t-26 82h70q2 -49 40 -77t101 -28q57 0 92.5 24.5t35.5 63.5q0 41 -31.5 65z" />
    <glyph glyph-name="t" unicode="t" horiz-adv-x="323" 
d="M175 661v-133h106v-56h-106v-343q0 -41 15 -60t50 -19q18 0 46 6l2 -57q-30 -9 -65 -9q-117 0 -117 138v344h-97v56h97v133h69z" />
    <glyph glyph-name="u" unicode="u" horiz-adv-x="550" 
d="M410 0l-1 63q-51 -73 -164 -73q-85 0 -128.5 49.5t-45.5 146.5v342h70v-341q0 -68 28.5 -102.5t84.5 -34.5q121 0 153 98v380h69v-528h-66z" />
    <glyph glyph-name="v" unicode="v" horiz-adv-x="482" 
d="M242 96l150 432h71l-195 -528h-54l-196 528h70z" />
    <glyph glyph-name="w" unicode="w" horiz-adv-x="753" 
d="M194 171l19 -69l133 426h58l134 -432l19 75l95 357h70l-154 -528h-57l-120 371l-17 60l-18 -60l-117 -371h-58l-153 528h70z" />
    <glyph glyph-name="x" unicode="x" horiz-adv-x="490" 
d="M244 321l134 207h81l-177 -260l184 -268h-81l-141 215l-141 -215h-81l184 268l-177 260h81z" />
    <glyph glyph-name="y" unicode="y" horiz-adv-x="475" 
d="M243 102l6 19l138 407h74l-220 -613l-10 -24q-43 -104 -141 -104l-47 6v58q11 -3 37 -3q40 0 64.5 21.5t41.5 70.5l24 65l-196 523h75z" />
    <glyph glyph-name="z" unicode="z" horiz-adv-x="490" 
d="M128 58h331v-58h-416v51l310 419h-302v58h389v-50z" />
    <glyph glyph-name="uni0627.001" horiz-adv-x="231" 
d="M91 171q0 118 -5 243.5t-11 164.5l63 13q6 -40 12 -169t6 -248q0 -113 -6 -178l-64 8q5 48 5 166z" />
    <glyph glyph-name="uni0627.fina.001" horiz-adv-x="273" 
d="M156.5 455q4.5 -91 4.5 -169l-1 -52l-1 -36q0 -50 8.5 -76.5t32.5 -39t73 -12.5h5l4 -35l-4 -35h-5q-73 0 -111.5 24t-52.5 72.5t-12 131.5v43q0 83 -4.5 172t-11.5 136l64 13q7 -46 11.5 -137z" />
    <glyph glyph-name="uni066E" unicode="&#x66e;" horiz-adv-x="814" 
d="M404 21q0 27 1 41q93 0 161.5 14.5t106 35.5t42.5 41q-3 38 -24 107t-33 97l57 31q18 -40 38.5 -115t20.5 -116q0 -49 -47.5 -87t-131.5 -58.5t-190 -20.5q-1 10 -1 30zM101 204q0 -13 1 -20q8 -59 86.5 -91t224.5 -31q2 -24 2 -35q0 -12 -2 -36q-171 -1 -267 46.5
t-105 137.5q-1 8 -1 24q0 41 10.5 84.5t25.5 77.5l55 -27q-30 -80 -30 -130z" />
    <glyph glyph-name="uni066E.001" horiz-adv-x="404" 
d="M-6 21q0 27 1 41q93 0 161.5 14.5t106 35.5t42.5 41q-3 38 -24 107t-33 97l57 31q18 -40 38.5 -115t20.5 -116q0 -49 -47.5 -87t-131.5 -58.5t-190 -20.5q-1 10 -1 30z" />
    <glyph glyph-name="uni066E.fina.001" horiz-adv-x="410" 
d="M101 204q0 -13 1 -20q8 -59 86.5 -91t224.5 -31q2 -24 2 -35q0 -12 -2 -36q-171 -1 -267 46.5t-105 137.5q-1 8 -1 24q0 41 10.5 84.5t25.5 77.5l55 -27q-30 -80 -30 -130z" />
    <glyph glyph-name="uni066E.fina.002" horiz-adv-x="526" 
d="M-4 27q0 11 2 35q177 0 269.5 49.5t125.5 157.5l61 -7q-18 -54 -18 -95q0 -46 23.5 -71t71.5 -25l4 -36l-4 -35q-69 0 -110.5 43.5t-36.5 116.5h15q-51 -88 -151 -128.5t-250 -40.5q-2 24 -2 36z" />
    <glyph glyph-name="uni066E.medi.001" horiz-adv-x="390" 
d="M-5 70h7q79 0 122.5 7t64.5 20t32 36q8 17 8 53q0 44 -11 112l59 12q8 -43 10.5 -93t1.5 -69q6 -39 31 -58.5t67 -19.5h9l3 -35l-3 -35h-9q-52 0 -90.5 29t-48.5 77h20q-11 -41 -40.5 -64t-83 -32.5t-142.5 -9.5h-7v70z" />
    <glyph glyph-name="uni066E.medi.002" horiz-adv-x="334" 
d="M339 70l4 -35l-4 -35h-5q-55 0 -94 27.5t-55 80.5q-8 27 -31 136l-11 50l58 17l6 -29q6 -28 16.5 -74.5t16.5 -65.5q12 -36 35 -54t59 -18h5zM162 38q-55 -38 -161 -38h-6v70h5q86 0 129.5 24t51.5 73l48 -9q-12 -82 -67 -120z" />
    <glyph glyph-name="uni066E.medi.003" horiz-adv-x="392" 
d="M397 70l4 -35l-4 -35h-5q-55 0 -94 27.5t-54 80.5q-8 27 -31 136l-11 50l57 17q29 -131 40 -169q23 -72 93 -72h5zM209.5 37.5q-66.5 -37.5 -208.5 -37.5h-6v70h6q119 0 175 23.5t63 73.5l49 -9q-12 -83 -78.5 -120.5z" />
    <glyph glyph-name="uni066E.init.001" horiz-adv-x="339" 
d="M-6 70h38q110 0 157 23t47 73q0 33 -19 95t-34 97l57 30q19 -41 38.5 -106t19.5 -112q0 -170 -259 -170h-45v70z" />
    <glyph glyph-name="uni0628.medi.001" horiz-adv-x="334" 
d="M339 70l4 -35l-4 -35h-5q-55 0 -94 27.5t-55 80.5q-8 27 -31 136l-11 50l58 17l6 -29q6 -28 16.5 -74.5t16.5 -65.5q12 -36 35 -54t59 -18h5zM162 38q-55 -38 -161 -38h-6v70h5q86 0 129.5 24t51.5 73l48 -9q-12 -82 -67 -120zM0 -163l63 63l63 -63l-63 -63z" />
    <glyph glyph-name="uni0628.medi.alt" horiz-adv-x="338" 
d="M-5 70h7q72 1 111 16t55 48q8 17 8 53q0 43 -11 111l59 12q8 -43 10.5 -93t1.5 -69q6 -38 32 -58t66 -20h9l4 -35l-4 -35h-9q-52 0 -90 29t-48 77h19q-17 -57 -69 -81.5t-144 -24.5h-7v70zM48 -162l63 63l63 -63l-63 -63z" />
    <glyph glyph-name="uni0628.medi.alt.001" horiz-adv-x="392" 
d="M397 70l4 -35l-4 -35h-5q-55 0 -94 27.5t-54 80.5q-8 27 -31 136l-11 50l57 17q29 -131 40 -169q23 -72 93 -72h5zM209.5 37.5q-66.5 -37.5 -208.5 -37.5h-6v70h6q119 0 175 23.5t63 73.5l49 -9q-12 -83 -78.5 -120.5zM54 -162l63 63l63 -63l-63 -63z" />
    <glyph glyph-name="uni0628.init.alt" horiz-adv-x="311" 
d="M-5 70h52q84 0 122.5 24t38.5 74q-1 34 -20 95.5t-34 94.5l57 30q19 -40 39 -108t20 -115q-1 -82 -58.5 -123.5t-164.5 -41.5h-52v70zM55 -162l63 63l63 -63l-63 -63z" />
    <glyph glyph-name="uni067E.medi.001" horiz-adv-x="392" 
d="M188 -77l21 -21l40 -40l-61 -60l-60 60zM15 -77l21 -21l40 -40l-61 -60l-60 60zM102 -184l54 -55l-54 -55l-54 55zM397 70l4 -35l-4 -35h-5q-55 0 -94 27.5t-54 80.5q-8 27 -31 136l-11 50l57 17q29 -131 40 -169q23 -72 93 -72h5zM209.5 37.5q-66.5 -37.5 -208.5 -37.5
h-6v70h6q119 0 175 23.5t63 73.5l49 -9q-12 -83 -78.5 -120.5z" />
    <glyph glyph-name="uni067E.medi.alt" horiz-adv-x="390" 
d="M-5 70h7q79 0 122.5 7t64.5 20t32 36q8 17 8 53q0 44 -11 112l59 12q8 -43 10.5 -93t1.5 -69q6 -39 31 -58.5t67 -19.5h9l3 -35l-3 -35h-9q-52 0 -90.5 29t-48.5 77h20q-11 -41 -40.5 -64t-83 -32.5t-142.5 -9.5h-7v70zM240 -77l21 -21l40 -40l-61 -60l-60 60zM67 -77
l21 -21l40 -40l-61 -60l-60 60zM154 -184l54 -55l-54 -55l-54 55z" />
    <glyph glyph-name="uni067E.medi.alt.001" horiz-adv-x="392" 
d="M240 -77l21 -21l40 -40l-61 -60l-60 60zM67 -77l21 -21l40 -40l-61 -60l-60 60zM154 -184l54 -55l-54 -55l-54 55zM397 70l4 -35l-4 -35h-5q-55 0 -94 27.5t-54 80.5q-8 27 -31 136l-11 50l57 17q29 -131 40 -169q23 -72 93 -72h5zM209.5 37.5q-66.5 -37.5 -208.5 -37.5
h-6v70h6q119 0 175 23.5t63 73.5l49 -9q-12 -83 -78.5 -120.5z" />
    <glyph glyph-name="uni067E.init.alt" horiz-adv-x="354" 
d="M9 70h38q109 0 156.5 23t47.5 73q0 33 -19 95t-34 97l57 30q20 -43 39 -107.5t19 -110.5q0 -170 -259 -170h-45v70zM243 -77l21 -21l40 -40l-61 -60l-60 60zM70 -77l21 -21l40 -40l-61 -60l-60 60zM157 -184l54 -55l-54 -55l-54 55zM-1 0l-4 35l4 35h18v-70h-18z" />
    <glyph glyph-name="uni062A.medi.001" horiz-adv-x="392" 
d="M397 70l4 -35l-4 -35h-5q-55 0 -94 27.5t-54 80.5q-8 27 -31 136l-11 50l57 17q29 -131 40 -169q23 -72 93 -72h5zM209.5 37.5q-66.5 -37.5 -208.5 -37.5h-6v70h6q119 0 175 23.5t63 73.5l49 -9q-12 -83 -78.5 -120.5zM111 521l60 -61l-60 -60l-20 20l-40 40zM276 521
l60 -61l-60 -60l-20 20l-40 40z" />
    <glyph glyph-name="uni062A.medi.002" horiz-adv-x="408" 
d="M412 70l4 -35l-4 -35h-5q-55 0 -94 27.5t-54 80.5q-8 27 -31 136l-11 50l57 17q29 -131 40 -169q23 -72 93 -72h5zM224.5 37.5q-66.5 -37.5 -208.5 -37.5h-6v70h6q119 0 175 23.5t63 73.5l49 -9q-12 -83 -78.5 -120.5zM122 521l60 -61l-60 -60l-20 20l-40 40zM287 521
l60 -61l-60 -60l-21 20q-33 33 -39 40zM-1 0l-4 35l4 35h18v-70h-18z" />
    <glyph glyph-name="uni062A.medi.alt" horiz-adv-x="406" 
d="M10 70h7q79 0 122.5 7t64.5 20t32 36q8 17 8 53q0 44 -11 112l59 12q8 -43 10.5 -93t1.5 -69q6 -39 31 -58.5t67 -19.5h9l3 -35l-3 -35h-9q-52 0 -90.5 29t-48.5 77h20q-11 -41 -40.5 -64t-83 -32.5t-142.5 -9.5h-7v70zM102 519l60 -61l-60 -60l-21 20q-33 33 -39 40z
M266 519l60 -61l-60 -60l-20 20q-21 19 -40 40zM-1 0l-4 35l4 35h18v-70h-18z" />
    <glyph glyph-name="uni062A.init.alt" horiz-adv-x="354" 
d="M9 70h38q110 0 157 23t47 73q0 33 -19 95t-34 97l57 30q19 -41 38.5 -106t19.5 -112q0 -170 -259 -170h-45v70zM103 579l60 -61l-60 -60q-9 11 -20 20l-40 40zM268 579l60 -61l-60 -60l-21 20l-39 40zM-1 0l-4 35l4 35h18v-70h-18z" />
    <glyph glyph-name="uni062B.medi.001" horiz-adv-x="392" 
d="M397 70l4 -35l-4 -35h-5q-55 0 -94 27.5t-54 80.5q-8 27 -31 136l-11 50l57 17q29 -131 40 -169q23 -72 93 -72h5zM209.5 37.5q-66.5 -37.5 -208.5 -37.5h-6v70h6q119 0 175 23.5t63 73.5l49 -9q-12 -83 -78.5 -120.5zM167 624l54 -55l-54 -55l-54 55zM255 525l21 -21
l40 -40l-61 -60l-60 60zM78 525l21 -21l40 -40l-61 -60l-60 60z" />
    <glyph glyph-name="uni062B.medi.002" horiz-adv-x="408" 
d="M412 70l4 -35l-4 -35h-5q-55 0 -94 27.5t-54 80.5q-8 27 -31 136l-11 50l57 17q29 -131 40 -169q23 -72 93 -72h5zM224.5 37.5q-66.5 -37.5 -208.5 -37.5h-6v70h6q119 0 175 23.5t63 73.5l49 -9q-12 -83 -78.5 -120.5zM179 624l54 -55l-54 -55l-54 55zM268 525l21 -21
l40 -40l-61 -60l-60 60zM90 525l21 -21l40 -40l-61 -60l-60 60zM-1 0l-4 35l4 35h18v-70h-18z" />
    <glyph glyph-name="uni062B.medi.alt" horiz-adv-x="406" 
d="M10 70h7q79 0 122.5 7t64.5 20t32 36q8 17 8 53q0 44 -11 112l59 12q8 -43 10.5 -93t1.5 -69q6 -39 31 -58.5t67 -19.5h9l3 -35l-3 -35h-9q-52 0 -90.5 29t-48.5 77h20q-11 -41 -40.5 -64t-83 -32.5t-142.5 -9.5h-7v70zM175 622l54 -55l-54 -55l-54 55zM264 523l21 -21
l40 -40l-61 -60l-60 60zM86 523l21 -21l40 -40l-61 -60l-60 60zM-1 0l-4 35l4 35h18v-70h-18z" />
    <glyph glyph-name="uni062B.init.alt" horiz-adv-x="354" 
d="M9 70h38q110 0 157 23t47 73q0 33 -19 95t-34 97l57 30q19 -41 38.5 -106t19.5 -112q0 -170 -259 -170h-45v70zM184 681l54 -55l-54 -55l-54 55zM273 583l20 -21l41 -40l-61 -60l-60 60zM95 583l21 -21q19 -21 40 -40l-61 -60l-60 60zM-1 0l-4 35l4 35h18v-70h-18z" />
    <glyph glyph-name="uni0679.medi.001" horiz-adv-x="392" 
d="M397 70l4 -35l-4 -35h-5q-55 0 -94 27.5t-54 80.5q-8 27 -31 136l-11 50l57 17q29 -131 40 -169q23 -72 93 -72h5zM209.5 37.5q-66.5 -37.5 -208.5 -37.5h-6v70h6q119 0 175 23.5t63 73.5l49 -9q-12 -83 -78.5 -120.5zM137 403q52 0 76.5 13.5t25.5 31.5q2 12 -6.5 21
t-26.5 9q-30 0 -61 -29t-55 -72l-31 21q29 52 66.5 87.5t77.5 35.5q33 0 53 -22t20 -50q0 -22 -16 -42.5t-48 -34t-79 -13.5q-33 0 -64 8t-49 16l15 39q53 -19 102 -19zM89 459q0 27 -3.5 67t-8.5 70l37 6q5 -29 9 -71.5t4 -73.5q0 -18 -1 -24l-38 5q1 6 1 21z" />
    <glyph glyph-name="uni062D.fina.001" horiz-adv-x="683" 
d="M534.5 -328q-70.5 -21 -174.5 -21q-90 0 -163 33.5t-115 93.5t-42 138q0 106 67 185.5t193 122.5t298 43l40 -1l-3 -47q-63 28 -156 91q-69 49 -116 72t-95 24q-44 -1 -80 -26.5t-55 -64.5l-44 30q31 61 76.5 94.5t101.5 33.5q57 0 110 -27t133 -84q48 -36 78 -55t62 -31
l-8 -66q-165 1 -285.5 -35t-185.5 -101.5t-68 -150.5q-1 -58 32 -104t94 -72t139 -26q85 0 150.5 16.5t104.5 32.5l23 -56q-41 -21 -111.5 -42z" />
    <glyph glyph-name="uni0688" unicode="&#x688;" horiz-adv-x="487" 
d="M136.5 79q37.5 -14 100.5 -14q58 0 95.5 16t48.5 38q6 14 6 29q0 50 -52.5 122t-156.5 151l36 61q110 -84 171 -171.5t61 -161.5q0 -35 -13 -62q-19 -43 -70.5 -66.5t-120.5 -23.5q-77 0 -129.5 20.5t-82.5 46.5l31 52q38 -23 75.5 -37zM205 599q52 0 76.5 13.5
t25.5 31.5q2 12 -6.5 21t-26.5 9q-30 0 -61 -29t-55 -72l-31 21q29 52 66.5 87.5t77.5 35.5q33 0 53 -22t20 -50q0 -22 -16 -42.5t-48 -34t-79 -13.5q-33 0 -64 8t-49 16l15 39q53 -19 102 -19zM157 655q0 27 -3.5 67t-8.5 70l37 6q5 -29 9 -71.5t4 -73.5q0 -18 -1 -24
l-38 5q1 6 1 21z" />
    <glyph glyph-name="uni0631.003" horiz-adv-x="361" 
d="M269.5 41q-31.5 41 -53.5 118l45 27q15 -63 37 -89t62 -27h6l4 -35l-4 -35h-6q-59 0 -90.5 41z" />
    <glyph glyph-name="uni0691" unicode="&#x691;" horiz-adv-x="330" 
d="M116.5 -166.5q52.5 36.5 82.5 79.5t30 82q0 54 -51 254l61 22q21 -72 36 -150.5t15 -125.5q0 -57 -35 -112.5t-95.5 -99.5t-134.5 -68l-25 62q64 20 116.5 56.5zM219 394q52 0 76.5 13.5t25.5 31.5q2 12 -6.5 21t-26.5 9q-30 0 -61 -29t-55 -72l-31 21q29 52 66.5 87.5
t77.5 35.5q33 0 53 -22t20 -50q0 -22 -16 -42.5t-48 -34t-79 -13.5q-33 0 -64 8t-49 16l15 39q53 -19 102 -19zM171 450q0 27 -3.5 67t-8.5 70l37 6q5 -29 9 -71.5t4 -73.5q0 -18 -1 -24l-38 5q1 6 1 21z" />
    <glyph glyph-name="uni0695" unicode="&#x695;" horiz-adv-x="330" 
d="M116.5 -166.5q52.5 36.5 82.5 79.5t30 82q0 54 -51 254l61 22q21 -72 36 -150.5t15 -125.5q0 -57 -35 -112.5t-95.5 -99.5t-134.5 -68l-25 62q64 20 116.5 56.5zM153 -470l-34 -14q-10 33 -30.5 72.5t-41.5 69.5l28 26q15 -20 31.5 -49.5t27.5 -58.5q11 31 26.5 63
t30.5 54l30 -25q-47 -69 -68 -138z" />
    <glyph glyph-name="uni0633.001" horiz-adv-x="618" 
d="M105 -10q0 -97 59.5 -151t166.5 -54q84 0 140.5 31.5t83.5 79.5t27 99q0 49 -13.5 106t-39.5 148l59 26q29 -97 42 -160.5t13 -119.5q0 -68 -36 -132.5t-106.5 -106t-169.5 -41.5q-95 0 -160.5 39t-97 100.5t-31.5 131.5q0 60 19 125t46 117l54 -26q-56 -118 -56 -212z
" />
    <glyph glyph-name="uni0633.fina.001" horiz-adv-x="98" 
d="M34 96.5q22 -26.5 68 -26.5l-3 -70q-57 0 -90 46.5t-42 112.5l31 19q14 -55 36 -81.5z" />
    <glyph glyph-name="uni0633.medi.002" horiz-adv-x="246" 
d="M-1 70h2q38 0 69.5 22.5t34.5 51.5l44 -10q-7 -58 -49.5 -96t-98.5 -38h-2v70zM252 70l4 -35l-4 -35h-5q-53 0 -91.5 29t-57.5 83q-12 36 -37 170l59 15q22 -125 35 -161q11 -33 33 -49.5t59 -16.5h5z" />
    <glyph glyph-name="uni0633.init.001" horiz-adv-x="181" 
d="M63 94.5q21 24.5 21 68.5q0 37 -19 98t-35 96l57 30q20 -43 39 -108.5t19 -115.5q0 -71 -40.5 -117t-103.5 -46h-2v70h2q41 0 62 24.5z" />
    <glyph glyph-name="uni0633.init.002" horiz-adv-x="272" 
d="M0 0v70h3q57 0 102 75q13 23 21 54.5t17 80.5l58 -4l-3 -20q-10 -48 -10 -83q0 -52 20.5 -77.5t64.5 -25.5h2l3 -35l-3 -35h-2q-60 0 -93.5 36.5t-37.5 101.5h12q-17 -58 -59 -98t-93 -40h-2z" />
    <glyph glyph-name="uni0633.init.003" horiz-adv-x="283" 
d="M-3 0l-4 35l4 35h5q39 0 72.5 18.5t53.5 49.5q19 27 30 57t24 73l59 -6q-10 -38 -15.5 -64.5t-5.5 -52.5q0 -75 64 -75h1l4 -35l-4 -35h-2q-48 0 -77.5 29.5t-33.5 78.5q-31 -53 -74.5 -80.5t-96.5 -27.5h-4z" />
    <glyph glyph-name="uni0635.medi.001" horiz-adv-x="192" 
d="M77.5 65q60.5 5 119.5 5l4 -35l-4 -35q-110 0 -162.5 4t-79.5 21l29 28q33 7 93.5 12z" />
    <glyph glyph-name="uni06A1" unicode="&#x6a1;" horiz-adv-x="844" 
d="M407 -8l-3 35l3 35h9q150 0 234 32.5t100 95.5q1 7 1 22q0 51 -14.5 102.5t-43 86t-67.5 36.5q-25 1 -47.5 -17t-36 -46.5t-13.5 -57.5q0 -25 10 -42q16 -27 60.5 -40t100.5 -13q37 0 62 4v-66q-40 -5 -76 -5q-68 0 -120.5 18t-75.5 60q-18 32 -18 78q0 47 20.5 92.5
t56 74.5t77.5 29q54 0 94 -40.5t61.5 -104t21.5 -128.5q0 -22 -3 -43q-11 -93 -110 -145.5t-275 -53.5zM101 204q0 -13 1 -20q8 -59 86.5 -91t224.5 -31q2 -24 2 -35q0 -12 -2 -36q-171 -1 -267 46.5t-105 137.5q-1 8 -1 24q0 41 10.5 84.5t25.5 77.5l55 -27
q-30 -80 -30 -130z" />
    <glyph glyph-name="uni06A1.medi.001" horiz-adv-x="469" 
d="M-3 -9l-4 36l4 35h11q293 0 325 142l1 13q0 46 -26.5 82t-66.5 36q-39 0 -69.5 -34.5t-36.5 -84.5q-4 -40 26.5 -73.5t91 -53t142.5 -19.5h79l4 -35l-4 -35h-60q-99 0 -176.5 26.5t-121 72.5t-43.5 104q0 7 2 21q7 50 32 92t60.5 66t73.5 24q42 0 77 -27t55.5 -69.5
t20.5 -87.5q0 -8 -2 -24q-13 -101 -112 -154t-272 -53h-11z" />
    <glyph glyph-name="uni06A1.init.001" horiz-adv-x="434" 
d="M-3 -8l-3 35l3 35h9q150 0 234 32.5t100 95.5q1 7 1 22q0 51 -14.5 102.5t-43 86t-67.5 36.5q-25 1 -47.5 -17t-36 -46.5t-13.5 -57.5q0 -25 10 -42q16 -27 60.5 -40t100.5 -13q37 0 62 4v-66q-40 -5 -76 -5q-68 0 -120.5 18t-75.5 60q-18 32 -18 78q0 47 20.5 92.5
t56 74.5t77.5 29q54 0 94 -40.5t61.5 -104t21.5 -128.5q0 -22 -3 -43q-11 -93 -110 -145.5t-275 -53.5z" />
    <glyph glyph-name="uni066F" unicode="&#x66f;" horiz-adv-x="688" 
d="M61 111q19 65 46 117l54 -26q-26 -57 -41.5 -108t-15.5 -100q0 -97 60 -153t167 -56q75 0 132.5 27t90.5 76.5t35 115.5q-37 -8 -81 -8q-62 0 -113.5 19t-74.5 62q-16 32 -16 73q0 49 21 99t56 82.5t75 32.5q60 0 104 -53t66 -130.5t22 -149.5q0 -97 -40.5 -168.5
t-112.5 -109.5t-164 -38q-95 0 -160.5 39t-97 100.5t-31.5 131.5q0 60 19 125zM425 77.5q39 -12.5 88 -12.5q40 0 75 8q-8 86 -42.5 153.5t-92.5 67.5q-24 0 -45 -20.5t-34 -52t-13 -61.5q0 -27 10 -44q15 -26 54 -38.5z" />
    <glyph glyph-name="uni0643.init.alt" horiz-adv-x="443" 
d="M443 653l-321 -140q87 -74 148.5 -166.5t61.5 -168.5q0 -29 -11 -56q-27 -64 -105 -97.5t-199 -33.5h-22l-4 35l4 35h22q103 0 165.5 21.5t80.5 61.5q7 15 7 37q0 60 -59 142.5t-162 164.5l9 65l364 158z" />
    <glyph glyph-name="uni0643.init.alt3" horiz-adv-x="442" 
d="M442 603l-321 -140q92 -77 146.5 -149t54.5 -137q0 -30 -11 -55q-27 -65 -101 -98t-193 -33h-22l-4 35l4 35h22q101 0 161 21.5t78 61.5q8 18 8 34q0 49 -53.5 112t-161.5 147l8 67l364 157zM63 618l314 135l15 -34l-334 -144z" />
    <glyph glyph-name="uni0644.001" horiz-adv-x="638" 
d="M577.5 494.5q6.5 -140.5 8.5 -182.5l10 -230q7 -157 -68 -243.5t-218 -86.5q-76 0 -137.5 31t-97 88t-35.5 131q0 50 18 113t46 118l55 -26q-26 -51 -41 -103t-15 -97q0 -54 25.5 -96t72.5 -65t109 -23q236 0 224 255q-10 227 -17.5 383t-13.5 207l63 13
q5 -46 11.5 -186.5z" />
    <glyph glyph-name="uni06B5" unicode="&#x6b5;" horiz-adv-x="638" 
d="M577.5 494.5q6.5 -140.5 8.5 -182.5l10 -230q7 -157 -68 -243.5t-218 -86.5q-76 0 -137.5 31t-97 88t-35.5 131q0 50 18 113t46 118l55 -26q-26 -51 -41 -103t-15 -97q0 -54 25.5 -96t72.5 -65t109 -23q236 0 224 255q-10 227 -17.5 383t-13.5 207l63 13
q5 -46 11.5 -186.5zM553 731l-34 -14q-10 33 -30.5 72.5t-41.5 69.5l28 26q15 -20 31.5 -49.5t27.5 -58.5q11 31 26.5 63t30.5 54l30 -25q-47 -69 -68 -138z" />
    <glyph glyph-name="uni0646.medi.001" horiz-adv-x="334" 
d="M339 70l4 -35l-4 -35h-5q-55 0 -94 27.5t-55 80.5q-8 27 -31 136l-11 50l58 17l6 -29q6 -28 16.5 -74.5t16.5 -65.5q12 -36 35 -54t59 -18h5zM162 38q-55 -38 -161 -38h-6v70h5q86 0 129.5 24t51.5 73l48 -9q-12 -82 -67 -120zM64 459l63 63l63 -63l-63 -63z" />
    <glyph glyph-name="uni06BA" unicode="&#x6ba;" horiz-adv-x="685" 
d="M104 -7q0 -99 60 -153.5t167 -54.5q84 0 140.5 31.5t83.5 79.5t27 99q0 49 -13.5 106t-39.5 148l59 26q29 -97 42 -160.5t13 -119.5q0 -68 -36 -132.5t-106.5 -106t-169.5 -41.5q-95 0 -160.5 39t-97 100.5t-31.5 131.5q0 60 19 125t46 117l54 -26q-57 -124 -57 -209z
" />
    <glyph glyph-name="uni0647.init.alt" horiz-adv-x="412" 
d="M153.5 86.5q63.5 16.5 96 45.5t32.5 65q0 40 -31.5 78.5t-68.5 57.5q-24 -49 -45.5 -127.5t-21.5 -153.5q0 -65 17 -116t47 -79.5t69 -28.5q27 0 44.5 14.5t16.5 41.5q-4 43 -46.5 83.5t-111.5 57.5l17 56q83 -22 139.5 -78t56.5 -123q0 -55 -35.5 -87t-82.5 -32
q-52 0 -95.5 36t-69 100.5t-25.5 146.5q0 103 30 195t61 143l60 23q55 -31 93.5 -86t38.5 -117q0 -96 -91.5 -149t-246.5 -53h-6v70h6q89 0 152.5 16.5z" />
    <glyph glyph-name="uni06C1" unicode="&#x6c1;" horiz-adv-x="421" 
d="M102 159q0 -42 29 -66.5t84 -24.5q47 0 79 23.5t34 60.5q4 62 -44.5 118t-166.5 127l35 57q122 -73 179 -141t57 -145q0 -15 -1 -23q-7 -65 -56.5 -106t-118.5 -41q-78 0 -124 43.5t-46 109.5q0 25 5 44q24 102 134 202l39 -46q-118 -99 -118 -192z" />
    <glyph glyph-name="uni06C2" unicode="&#x6c2;" horiz-adv-x="421" 
d="M102 159q0 -42 29 -66.5t84 -24.5q47 0 79 23.5t34 60.5q4 62 -44.5 118t-166.5 127l35 57q122 -73 179 -141t57 -145q0 -15 -1 -23q-7 -65 -56.5 -106t-118.5 -41q-78 0 -124 43.5t-46 109.5q0 25 5 44q24 102 134 202l39 -46q-118 -99 -118 -192zM146 584
q-29 26 -29 62q0 30 19 55.5t49 32.5q12 3 25 3q16 0 34 -4.5t32 -8.5l-11 -43q-34 12 -54 12q-28 0 -44.5 -17.5t-11.5 -38.5q3 -16 22.5 -29t45.5 -13l-7 -41q-41 4 -70 30zM88 554l210 69v-44l-210 -68v43z" />
    <glyph glyph-name="uni06C3" unicode="&#x6c3;" horiz-adv-x="421" 
d="M102 159q0 -42 29 -66.5t84 -24.5q47 0 79 23.5t34 60.5q4 62 -44.5 118t-166.5 127l35 57q122 -73 179 -141t57 -145q0 -15 -1 -23q-7 -65 -56.5 -106t-118.5 -41q-78 0 -124 43.5t-46 109.5q0 25 5 44q24 102 134 202l39 -46q-118 -99 -118 -192zM138 636l60 -61
l-60 -60l-20 20l-40 40zM303 636l60 -61l-60 -60l-20 20l-40 40z" />
    <glyph glyph-name="uni06C9" unicode="&#x6c9;" horiz-adv-x="439" 
d="M264.5 -125.5q77.5 62.5 77.5 155.5q-1 59 -16.5 120.5t-46 102.5t-73.5 41q-23 0 -45 -21.5t-35.5 -53.5t-13.5 -61q0 -25 10 -42q16 -26 54 -38t89 -12q47 0 94 10v-68q-46 -12 -99 -12q-63 0 -114.5 19t-74.5 62q-15 29 -15 72q0 50 21 100t56.5 82.5t75.5 32.5
q59 0 102 -52t65 -128.5t22 -148.5q0 -120 -91.5 -203t-257.5 -117l-19 63q157 34 234.5 96.5zM241.5 479q-15.5 32 -26.5 63q-11 -29 -27.5 -58.5t-31.5 -49.5l-28 26q21 30 41.5 69.5t30.5 72.5l34 -14q21 -69 68 -138l-30 -25q-15 22 -30.5 54z" />
    <glyph glyph-name="uni0649.fina.001" horiz-adv-x="656" 
d="M182 -243q-67 33 -104.5 93.5t-37.5 141.5q0 60 19.5 126t45.5 120l54 -26q-57 -121 -57 -213q0 -98 61.5 -151t170.5 -53q63 0 119 16.5t91.5 41t39.5 45.5q-4 21 -66.5 62.5t-140.5 75.5l15 66q146 -31 252 -31l27 -1l3 -35l-3 -35h-27q-59 0 -112.5 8t-123.5 23l-29 6
l16 46l20 -10q104 -47 168 -89t62 -88q-2 -44 -45 -84t-113.5 -64t-152.5 -24q-85 0 -152 33z" />
    <glyph glyph-name="uni064A.fina.001" horiz-adv-x="656" 
d="M182 -243q-67 33 -104.5 93.5t-37.5 141.5q0 60 19.5 126t45.5 120l54 -26q-57 -121 -57 -213q0 -98 61.5 -151t170.5 -53q63 0 119 16.5t91.5 41t39.5 45.5q-4 21 -66.5 62.5t-140.5 75.5l15 66q146 -31 252 -31l27 -1l3 -35l-3 -35h-27q-59 0 -112.5 8t-123.5 23l-29 6
l16 46l20 -10q104 -47 168 -89t62 -88q-2 -44 -45 -84t-113.5 -64t-152.5 -24q-85 0 -152 33zM251 -341l60 -61l-60 -60l-20 20l-40 40zM416 -341l60 -61l-60 -60l-20 20l-40 40z" />
    <glyph glyph-name="uni064A.medi.001" horiz-adv-x="392" 
d="M397 70l4 -35l-4 -35h-5q-55 0 -94 27.5t-54 80.5q-8 27 -31 136l-11 50l57 17q29 -131 40 -169q23 -72 93 -72h5zM209.5 37.5q-66.5 -37.5 -208.5 -37.5h-6v70h6q119 0 175 23.5t63 73.5l49 -9q-12 -83 -78.5 -120.5zM23 -101l60 -61l-60 -60l-20 20l-40 40zM188 -101
l60 -61l-60 -60l-20 20l-40 40z" />
    <glyph glyph-name="uni064A.medi.alt" horiz-adv-x="390" 
d="M-5 70h7q79 0 122.5 7t64.5 20t32 36q8 17 8 53q0 44 -11 112l59 12q8 -43 10.5 -93t1.5 -69q6 -39 31 -58.5t67 -19.5h9l3 -35l-3 -35h-9q-52 0 -90.5 29t-48.5 77h20q-11 -41 -40.5 -64t-83 -32.5t-142.5 -9.5h-7v70zM67 -102l60 -61l-60 -60l-20 20l-40 40zM232 -102
l60 -61l-60 -60l-20 20l-40 40z" />
    <glyph glyph-name="uni064A.medi.alt.001" horiz-adv-x="392" 
d="M397 70l4 -35l-4 -35h-5q-55 0 -94 27.5t-54 80.5q-8 27 -31 136l-11 50l57 17q29 -131 40 -169q23 -72 93 -72h5zM209.5 37.5q-66.5 -37.5 -208.5 -37.5h-6v70h6q119 0 175 23.5t63 73.5l49 -9q-12 -83 -78.5 -120.5zM67 -101l60 -61l-60 -60l-20 20l-40 40zM232 -101
l60 -61l-60 -60l-20 20l-40 40z" />
    <glyph glyph-name="uni064A.init.alt" horiz-adv-x="353" 
d="M8 70h38q110 0 157 23t47 73q0 33 -19 95t-34 97l57 30q19 -41 38.5 -106t19.5 -112q0 -170 -259 -170h-45v70zM68 -100l60 -61l-60 -60l-21 20l-39 40zM233 -100l60 -61l-60 -60l-21 20l-39 40zM-1 0l-4 35l4 35h18v-70h-18z" />
    <glyph glyph-name="uni0626.fina.001" horiz-adv-x="656" 
d="M182 -243q-67 33 -104.5 93.5t-37.5 141.5q0 60 19.5 126t45.5 120l54 -26q-57 -121 -57 -213q0 -98 61.5 -151t170.5 -53q63 0 119 16.5t91.5 41t39.5 45.5q-4 21 -66.5 62.5t-140.5 75.5l15 66q146 -31 252 -31l27 -1l3 -35l-3 -35h-27q-59 0 -112.5 8t-123.5 23l-29 6
l16 46l20 -10q104 -47 168 -89t62 -88q-2 -44 -45 -84t-113.5 -64t-152.5 -24q-85 0 -152 33zM196 348q-29 26 -29 62q0 30 19 55.5t49 32.5q12 3 25 3q16 0 34 -4.5t32 -8.5l-11 -43q-34 12 -54 12q-28 0 -44.5 -17.5t-11.5 -38.5q3 -16 22.5 -29t45.5 -13l-7 -41
q-41 4 -70 30zM138 318l210 69v-44l-210 -68v43z" />
    <glyph glyph-name="uni0626.medi.001" horiz-adv-x="334" 
d="M339 70l4 -35l-4 -35h-5q-55 0 -94 27.5t-55 80.5q-8 27 -31 136l-11 50l58 17l6 -29q6 -28 16.5 -74.5t16.5 -65.5q12 -36 35 -54t59 -18h5zM162 38q-55 -38 -161 -38h-6v70h5q86 0 129.5 24t51.5 73l48 -9q-12 -82 -67 -120zM76 447q-29 26 -29 62q0 30 19 55.5
t49 32.5q12 3 25 3q16 0 34 -4.5t32 -8.5l-11 -43q-34 12 -54 12q-28 0 -44.5 -17.5t-11.5 -38.5q3 -16 22.5 -29t45.5 -13l-7 -41q-41 4 -70 30zM18 417l210 69v-44l-210 -68v43z" />
    <glyph glyph-name="uni06CE" unicode="&#x6ce;" horiz-adv-x="723" 
d="M102 39q0 -97 60 -151t166 -54q76 0 133 25.5t90 63t39 73.5q1 10 -24.5 21t-97.5 28q-78 19 -109 43t-31 71q0 72 37 135.5t98 101.5t129 38q25 0 49 -5.5t40 -15.5l-23 -62q-11 6 -29.5 9.5t-36.5 3.5q-54 0 -100.5 -28.5t-74.5 -73t-28 -89.5q0 -15 8.5 -25t32.5 -19
t71 -21q63 -15 94.5 -28t43.5 -29t12 -42q0 -57 -41 -114t-115 -94t-167 -37q-83 0 -148.5 33t-102 93.5t-36.5 141.5q0 60 19 126t45 119l54 -25q-57 -121 -57 -213zM254 362l-34 -14q-10 33 -30.5 72.5t-41.5 69.5l28 26q15 -20 31.5 -49.5t27.5 -58.5q11 31 26.5 63
t30.5 54l30 -25q-47 -69 -68 -138z" />
    <glyph glyph-name="uni06CE.fina.001" horiz-adv-x="656" 
d="M182 -243q-67 33 -104.5 93.5t-37.5 141.5q0 60 19.5 126t45.5 120l54 -26q-57 -121 -57 -213q0 -98 61.5 -151t170.5 -53q63 0 119 16.5t91.5 41t39.5 45.5q-4 21 -66.5 62.5t-140.5 75.5l15 66q146 -31 252 -31l27 -1l3 -35l-3 -35h-27q-59 0 -112.5 8t-123.5 23l-29 6
l16 46l20 -10q104 -47 168 -89t62 -88q-2 -44 -45 -84t-113.5 -64t-152.5 -24q-85 0 -152 33zM302 235l-34 -14q-10 33 -30.5 72.5t-41.5 69.5l28 26q15 -20 31.5 -49.5t27.5 -58.5q11 31 26.5 63t30.5 54l30 -25q-47 -69 -68 -138z" />
    <glyph glyph-name="uni06CE.medi.001" horiz-adv-x="392" 
d="M171 385l-34 -14q-10 33 -30.5 72.5t-41.5 69.5l28 26q15 -20 31.5 -49.5t27.5 -58.5q11 31 26.5 63t30.5 54l30 -25q-47 -69 -68 -138zM397 70l4 -35l-4 -35h-5q-55 0 -94 27.5t-54 80.5q-8 27 -31 136l-11 50l57 17q29 -131 40 -169q23 -72 93 -72h5zM209.5 37.5
q-66.5 -37.5 -208.5 -37.5h-6v70h6q119 0 175 23.5t63 73.5l49 -9q-12 -83 -78.5 -120.5zM23 -101l60 -61l-60 -60l-20 20l-40 40zM188 -101l60 -61l-60 -60l-20 20l-40 40z" />
    <glyph glyph-name="uni06CE.medi.alt" horiz-adv-x="390" 
d="M187 380l-34 -14q-10 33 -30.5 72.5t-41.5 69.5l28 26q15 -20 31.5 -49.5t27.5 -58.5q11 31 26.5 63t30.5 54l30 -25q-47 -69 -68 -138zM-5 70h7q79 0 122.5 7t64.5 20t32 36q8 17 8 53q0 44 -11 112l59 12q8 -43 10.5 -93t1.5 -69q6 -39 31 -58.5t67 -19.5h9l3 -35
l-3 -35h-9q-52 0 -90.5 29t-48.5 77h20q-11 -41 -40.5 -64t-83 -32.5t-142.5 -9.5h-7v70zM67 -102l60 -61l-60 -60l-20 20l-40 40zM232 -102l60 -61l-60 -60l-20 20l-40 40z" />
    <glyph glyph-name="uni06CE.medi.alt.001" horiz-adv-x="392" 
d="M176 375l-34 -14q-10 33 -30.5 72.5t-41.5 69.5l28 26q15 -20 31.5 -49.5t27.5 -58.5q11 31 26.5 63t30.5 54l30 -25q-47 -69 -68 -138zM397 70l4 -35l-4 -35h-5q-55 0 -94 27.5t-54 80.5q-8 27 -31 136l-11 50l57 17q29 -131 40 -169q23 -72 93 -72h5zM209.5 37.5
q-66.5 -37.5 -208.5 -37.5h-6v70h6q119 0 175 23.5t63 73.5l49 -9q-12 -83 -78.5 -120.5zM67 -101l60 -61l-60 -60l-20 20l-40 40zM232 -101l60 -61l-60 -60l-20 20l-40 40z" />
    <glyph glyph-name="uni06CE.init.alt" horiz-adv-x="353" 
d="M188 473l-34 -14q-10 33 -30.5 72.5t-41.5 69.5l28 26q15 -20 31.5 -49.5t27.5 -58.5q11 31 26.5 63t30.5 54l30 -25q-47 -69 -68 -138zM8 70h38q110 0 157 23t47 73q0 33 -19 95t-34 97l57 30q19 -41 38.5 -106t19.5 -112q0 -170 -259 -170h-45v70zM68 -100l60 -61
l-60 -60l-21 20l-39 40zM233 -100l60 -61l-60 -60l-21 20l-39 40zM-1 0l-4 35l4 35h18v-70h-18z" />
    <glyph glyph-name="uni06CC.fina.001" horiz-adv-x="656" 
d="M182 -243q-67 33 -104.5 93.5t-37.5 141.5q0 60 19.5 126t45.5 120l54 -26q-57 -121 -57 -213q0 -98 61.5 -151t170.5 -53q63 0 119 16.5t91.5 41t39.5 45.5q-4 21 -66.5 62.5t-140.5 75.5l15 66q146 -31 252 -31l27 -1l3 -35l-3 -35h-27q-59 0 -112.5 8t-123.5 23l-29 6
l16 46l20 -10q104 -47 168 -89t62 -88q-2 -44 -45 -84t-113.5 -64t-152.5 -24q-85 0 -152 33z" />
    <glyph glyph-name="uni06CC.medi.001" horiz-adv-x="392" 
d="M397 70l4 -35l-4 -35h-5q-55 0 -94 27.5t-54 80.5q-8 27 -31 136l-11 50l57 17q29 -131 40 -169q23 -72 93 -72h5zM209.5 37.5q-66.5 -37.5 -208.5 -37.5h-6v70h6q119 0 175 23.5t63 73.5l49 -9q-12 -83 -78.5 -120.5zM23 -101l60 -61l-60 -60l-20 20l-40 40zM188 -101
l60 -61l-60 -60l-20 20l-40 40z" />
    <glyph glyph-name="uni06CC.medi.alt" horiz-adv-x="390" 
d="M-5 70h7q79 0 122.5 7t64.5 20t32 36q8 17 8 53q0 44 -11 112l59 12q8 -43 10.5 -93t1.5 -69q6 -39 31 -58.5t67 -19.5h9l3 -35l-3 -35h-9q-52 0 -90.5 29t-48.5 77h20q-11 -41 -40.5 -64t-83 -32.5t-142.5 -9.5h-7v70zM67 -102l60 -61l-60 -60l-20 20l-40 40zM232 -102
l60 -61l-60 -60l-20 20l-40 40z" />
    <glyph glyph-name="uni06CC.medi.alt.001" horiz-adv-x="392" 
d="M397 70l4 -35l-4 -35h-5q-55 0 -94 27.5t-54 80.5q-8 27 -31 136l-11 50l57 17q29 -131 40 -169q23 -72 93 -72h5zM209.5 37.5q-66.5 -37.5 -208.5 -37.5h-6v70h6q119 0 175 23.5t63 73.5l49 -9q-12 -83 -78.5 -120.5zM67 -101l60 -61l-60 -60l-20 20l-40 40zM232 -101
l60 -61l-60 -60l-20 20l-40 40z" />
    <glyph glyph-name="uni06CC.init.alt" horiz-adv-x="353" 
d="M8 70h38q110 0 157 23t47 73q0 33 -19 95t-34 97l57 30q19 -41 38.5 -106t19.5 -112q0 -170 -259 -170h-45v70zM68 -100l60 -61l-60 -60l-21 20l-39 40zM233 -100l60 -61l-60 -60l-21 20l-39 40zM-1 0l-4 35l4 35h18v-70h-18z" />
    <glyph glyph-name="uni06D2.fina.alt" horiz-adv-x="415" 
d="M51 -126q0 57 37 101.5t101.5 69.5t143.5 25h86l4 -35l-4 -35h-86q-64 0 -113 -16t-78 -39.5t-35 -45.5q14 -12 63 -23t103 -11l126 1l-26 -70q-29 -1 -109 -1q-81 0 -126.5 12.5t-84.5 38.5q-2 9 -2 28z" />
    <glyph glyph-name="uni06D3.fina.alt" horiz-adv-x="415" 
d="M51 -126q0 57 37 101.5t101.5 69.5t143.5 25h86l4 -35l-4 -35h-86q-64 0 -113 -16t-78 -39.5t-35 -45.5q14 -12 63 -23t103 -11l126 1l-26 -70q-29 -1 -109 -1q-81 0 -126.5 12.5t-84.5 38.5q-2 9 -2 28zM163 185q-29 26 -29 62q0 30 19 55.5t49 32.5q12 3 25 3
q16 0 34 -4.5t32 -8.5l-11 -43q-34 12 -54 12q-28 0 -44.5 -17.5t-11.5 -38.5q3 -16 22.5 -29t45.5 -13l-7 -41q-41 4 -70 30zM105 155l210 69v-44l-210 -68v43z" />
    <glyph glyph-name="uni06D3.fina.alt2" horiz-adv-x="353" 
d="M48 -125q0 57 36.5 101.5t101.5 69t147 24.5h26l3 -35l-3 -35h-26q-63 0 -114 -16t-81 -40t-34 -45q15 -13 63 -23.5t124 -10.5q124 0 242 4l-25 -71q-92 -3 -217 -3q-111 0 -164.5 13t-76.5 38q-2 10 -2 29zM167 177q-29 26 -29 62q0 30 19 55.5t49 32.5q12 3 25 3
q16 0 34 -4.5t32 -8.5l-11 -43q-34 12 -54 12q-28 0 -44.5 -17.5t-11.5 -38.5q3 -16 22.5 -29t45.5 -13l-7 -41q-41 4 -70 30zM109 147l210 69v-44l-210 -68v43z" />
    <glyph glyph-name="uni06D5" unicode="&#x6d5;" horiz-adv-x="421" 
d="M102 159q0 -42 29 -66.5t84 -24.5q47 0 79 23.5t34 60.5q4 62 -44.5 118t-166.5 127l35 57q122 -73 179 -141t57 -145q0 -15 -1 -23q-7 -65 -56.5 -106t-118.5 -41q-78 0 -124 43.5t-46 109.5q0 25 5 44q24 102 134 202l39 -46q-118 -99 -118 -192z" />
    <glyph glyph-name="uni0640" unicode="&#x640;" horiz-adv-x="198" 
d="M-5 70h208l4 -35l-4 -35h-208v70z" />
    <glyph glyph-name="uni0640.001" horiz-adv-x="15" 
d="M-1 0l-4 35l4 35h18v-70h-18z" />
    <glyph glyph-name="uni06B50627" horiz-adv-x="532" 
d="M480 460q7 -92 6 -197q-2 -139 -112 -205.5t-277 -80.5l-17 69q342 33 342 216q0 101 -6.5 183t-21.5 223l63 13q16 -129 23 -221zM206 340.5q34 -124.5 34 -211.5q0 -36 -6 -63l-63 -17q9 27 9 66q0 82 -34 202t-86 244l54 36q58 -132 92 -256.5zM449 720l-34 -14
q-10 33 -30.5 72.5t-41.5 69.5l28 26q15 -20 31.5 -49.5t27.5 -58.5q11 31 26.5 63t30.5 54l30 -25q-47 -69 -68 -138z" />
    <glyph glyph-name="uni06B50627.fina" horiz-adv-x="604" 
d="M477.5 67.5q-37.5 67.5 -37.5 177.5q0 35 8 54t18 19q9 0 14.5 -12t5.5 -33q0 -101 24 -152t89 -51h10v-70h-11q-83 0 -120.5 67.5zM480 460q7 -92 6 -197q-2 -139 -112 -205.5t-277 -80.5l-17 69q342 33 342 216q0 101 -6.5 183t-21.5 223l63 13q16 -129 23 -221z
M206 340.5q34 -124.5 34 -211.5q0 -36 -6 -63l-63 -17q9 27 9 66q0 82 -34 202t-86 244l54 36q58 -132 92 -256.5zM449 720l-34 -14q-10 33 -30.5 72.5t-41.5 69.5l28 26q15 -20 31.5 -49.5t27.5 -58.5q11 31 26.5 63t30.5 54l30 -25q-47 -69 -68 -138z" />
    <glyph glyph-name="uni066B" unicode="&#x66b;" horiz-adv-x="344" 
d="M39 -48l215 491h54l-214 -491h-55z" />
    <glyph glyph-name="uni066C" unicode="&#x66c;" horiz-adv-x="187" 
d="M23 -130l73 238h62v0l-89 -238h-46v0z" />
    <glyph glyph-name="uni0660" unicode="&#x660;" horiz-adv-x="354" 
d="M254 184l-86 -87l-87 87l87 87z" />
    <glyph glyph-name="uni0661" unicode="&#x661;" horiz-adv-x="366" 
d="M169 43q0 81 -4.5 168t-12.5 152q-10 84 -29 150.5t-46 127.5l66 37q54 -119 77 -307q15 -130 15 -337v-34h-66v43z" />
    <glyph glyph-name="uni0662" unicode="&#x662;" horiz-adv-x="512" 
d="M198 525q14 -27 39.5 -45t68.5 -18q115 0 115 147q0 34 -4 62l58 11q7 -36 7 -77q0 -95 -44 -156t-130 -61q-56 0 -93 25t-58.5 63.5t-46.5 101.5l51 31q23 -57 37 -84zM161 43q0 81 -4.5 168t-12.5 152q-10 84 -29 150.5t-46 127.5l66 37q54 -119 77 -307
q15 -130 15 -337v-34h-66v43z" />
    <glyph glyph-name="uni0663" unicode="&#x663;" horiz-adv-x="656" 
d="M456 512.5q18 -41.5 55 -41.5q27 0 40.5 27t13.5 74q0 41 -11 96l58 13q14 -61 14 -112q0 -77 -29 -123.5t-86 -46.5q-121 0 -135 240l56 9q6 -94 24 -135.5zM214.5 499q27.5 -37 72.5 -37q47 0 70.5 43t18.5 124l55 9q1 -11 1 -31q0 -64 -17.5 -113.5t-50 -77.5
t-73.5 -28q-45 0 -76.5 24t-53.5 63.5t-48 102.5l47 35q27 -77 54.5 -114zM162 43q0 82 -4.5 169t-13.5 151q-10 84 -29 150.5t-46 127.5l66 37q54 -119 77 -307q15 -130 15 -337v-34h-66z" />
    <glyph glyph-name="uni0664" unicode="&#x664;" horiz-adv-x="440" 
d="M256 3q-74 0 -126.5 38t-52.5 106q0 49 32 98t84.5 85.5t111.5 49.5l11 -75q-24 -5 -57 -5q-57 0 -105.5 19.5t-77.5 55t-29 81.5q0 44 32.5 87.5t85 77t109.5 51.5l21 -73q-72 -26 -127 -66t-55 -77q0 -36 40.5 -57t107.5 -21q29 0 44 2l11 -75q-72 -18 -123.5 -61
t-51.5 -90q0 -36 29.5 -54.5t75.5 -18.5q31 0 65 8.5t63 24.5l28 -70q-68 -41 -146 -41z" />
    <glyph glyph-name="uni0665" unicode="&#x665;" horiz-adv-x="493" 
d="M140 30.5q-46 31.5 -71 88t-25 128.5q0 80 28 162t75 135t101 53q59 0 106.5 -56.5t72.5 -138.5t22 -152q-5 -111 -58.5 -181t-145.5 -70q-59 0 -105 31.5zM346 120q39 47 44 129q4 54 -16 119t-54.5 110t-72.5 45q-33 0 -66.5 -41t-55.5 -105t-22 -126q0 -84 39 -131
t103 -47q62 0 101 47z" />
    <glyph glyph-name="uni0666" unicode="&#x666;" horiz-adv-x="532" 
d="M336 192q-24 110 -24 225q0 101 18 192l31 -46q-32 -15 -76 -23t-92 -8q-94 0 -159 27l21 72q67 -22 147 -22q74 0 140 20l39 -48q-4 -51 -4 -111q0 -248 91 -433l-62 -42q-46 87 -70 197z" />
    <glyph glyph-name="uni0667" unicode="&#x667;" horiz-adv-x="589" 
d="M470 465q-51 -114 -92 -241t-51 -224h-64q-8 96 -49 223t-93 241.5t-89 170.5l61 45q38 -61 86.5 -174t89.5 -246.5t57 -250.5h-61q16 117 57 250.5t89.5 247t85.5 173.5l60 -45q-36 -56 -87 -170z" />
    <glyph glyph-name="uni0668" unicode="&#x668;" horiz-adv-x="589" 
d="M119 202q51 114 92 241t51 224h64q8 -96 49 -223t93 -241.5t89 -170.5l-61 -45q-38 61 -86.5 174t-89.5 246.5t-57 250.5h61q-16 -117 -57 -250.5t-89.5 -247t-85.5 -173.5l-60 45q36 56 87 170z" />
    <glyph glyph-name="uni0669" unicode="&#x669;" horiz-adv-x="480" 
d="M329 155q-17 115 -24 234q-5 82 -28 151t-78 69q-25 0 -47 -19.5t-35 -51t-13 -65.5q0 -40 26.5 -62t76.5 -22q43 0 69 12.5t50 30.5l28 -69q-26 -20 -65 -33.5t-83 -13.5q-74 0 -119 41t-45 114q1 48 21.5 96.5t57 80t79.5 31.5q65 0 100.5 -50t48 -107t19.5 -128
q9 -106 27.5 -212t40.5 -160l-65 -38q-25 56 -42 171z" />
    <glyph glyph-name="uni06F0" unicode="&#x6f0;" horiz-adv-x="441" 
d="M138 71.5q-35 20.5 -55.5 55t-20.5 75.5t20.5 75.5t55.5 55t76 20.5t76 -20.5t55.5 -55t20.5 -75.5t-20.5 -75.5t-55.5 -55t-76 -20.5t-76 20.5zM276.5 139q24.5 25 24.5 63t-24.5 63t-62.5 25q-37 0 -62 -25t-25 -63t24.5 -63t62.5 -25t62.5 25z" />
    <glyph glyph-name="uni06F1" unicode="&#x6f1;" horiz-adv-x="366" 
d="M169 43q0 81 -4.5 168t-12.5 152q-10 84 -29 150.5t-46 127.5l66 37q54 -119 77 -307q15 -130 15 -337v-34h-66v43z" />
    <glyph glyph-name="uni06F2" unicode="&#x6f2;" horiz-adv-x="512" 
d="M198 525q14 -27 39.5 -45t68.5 -18q115 0 115 147q0 34 -4 62l58 11q7 -36 7 -77q0 -95 -44 -156t-130 -61q-56 0 -93 25t-58.5 63.5t-46.5 101.5l51 31q23 -57 37 -84zM161 43q0 81 -4.5 168t-12.5 152q-10 84 -29 150.5t-46 127.5l66 37q54 -119 77 -307
q15 -130 15 -337v-34h-66v43z" />
    <glyph glyph-name="uni06F3" unicode="&#x6f3;" horiz-adv-x="656" 
d="M456 512.5q18 -41.5 55 -41.5q27 0 40.5 27t13.5 74q0 41 -11 96l58 13q14 -61 14 -112q0 -77 -29 -123.5t-86 -46.5q-121 0 -135 240l56 9q6 -94 24 -135.5zM214.5 499q27.5 -37 72.5 -37q47 0 70.5 43t18.5 124l55 9q1 -11 1 -31q0 -64 -17.5 -113.5t-50 -77.5
t-73.5 -28q-45 0 -76.5 24t-53.5 63.5t-48 102.5l47 35q27 -77 54.5 -114zM162 43q0 82 -4.5 169t-13.5 151q-10 84 -29 150.5t-46 127.5l66 37q54 -119 77 -307q15 -130 15 -337v-34h-66z" />
    <glyph glyph-name="uni06F4" unicode="&#x6f4;" horiz-adv-x="644" 
d="M275.5 420q65.5 -50 147.5 -50q47 0 93.5 14.5t85.5 37.5l21 -63q-89 -52 -170 -52q-57 0 -101.5 24.5t-70 63t-28.5 77.5q-4 52 20 99t68.5 76t100.5 29q77 0 159 -65l-29 -54q-26 19 -59.5 31.5t-66.5 12.5q-37 0 -67.5 -15.5t-47.5 -42t-17 -56.5q0 -46 34 -79t95 -33
q71 0 160 48l20 -64q-39 -25 -90.5 -40.5t-104.5 -15.5q-99 0 -179.5 58.5t-121.5 188.5l51 32q32 -112 97.5 -162zM169 43q0 81 -4.5 168t-12.5 152q-10 84 -29 150.5t-46 127.5l66 37q54 -119 77 -307q15 -130 15 -337v-34h-66v43z" />
    <glyph glyph-name="uni06F5" unicode="&#x6f5;" horiz-adv-x="604" 
d="M164.5 375.5q-52.5 -103.5 -52.5 -181.5q0 -59 24 -92t65 -33q35 1 56.5 34.5t20.5 98.5l59 10q3 -71 23 -107.5t52 -36.5q81 0 81 123q0 112 -79.5 213.5t-215.5 210.5l40 64q92 -78 160 -151t113 -160.5t45 -183.5q0 -92 -39.5 -140t-102.5 -48q-55 0 -95 49t-41 157
l59 10q0 -117 -38.5 -166.5t-100.5 -49.5q-69 0 -109.5 53.5t-40.5 139.5q0 20 1 30q8 91 68.5 204t144.5 211l39 -55q-84 -100 -136.5 -203.5z" />
    <glyph glyph-name="uni06F6" unicode="&#x6f6;" horiz-adv-x="516" 
d="M143.5 218.5q68.5 92.5 152.5 157t170 97.5l13 -73q-75 -30 -149 -88t-135.5 -141t-97.5 -184l-60 27q38 112 106.5 204.5zM264 329q-51 0 -90.5 21.5t-61.5 58t-22 80.5q0 43 21.5 85t62.5 71t96 35q7 1 20 1q39 0 73 -13.5t56 -31.5l-28 -53q-24 14 -50.5 21.5
t-63.5 4.5q-55 -4 -88.5 -39.5t-33.5 -80.5q1 -38 31 -62.5t80 -24.5q56 0 119 33l17 -69q-71 -37 -138 -37z" />
    <glyph glyph-name="uni06F7" unicode="&#x6f7;" horiz-adv-x="589" 
d="M470 465q-51 -114 -92 -241t-51 -224h-64q-8 96 -49 223t-93 241.5t-89 170.5l61 45q38 -61 86.5 -174t89.5 -246.5t57 -250.5h-61q16 117 57 250.5t89.5 247t85.5 173.5l60 -45q-36 -56 -87 -170z" />
    <glyph glyph-name="uni06F8" unicode="&#x6f8;" horiz-adv-x="589" 
d="M119 202q51 114 92 241t51 224h64q8 -96 49 -223t93 -241.5t89 -170.5l-61 -45q-38 61 -86.5 174t-89.5 246.5t-57 250.5h61q-16 -117 -57 -250.5t-89.5 -247t-85.5 -173.5l-60 45q36 56 87 170z" />
    <glyph glyph-name="uni06F9" unicode="&#x6f9;" horiz-adv-x="480" 
d="M329 155q-17 115 -24 234q-5 82 -28 151t-78 69q-25 0 -47 -19.5t-35 -51t-13 -65.5q0 -40 26.5 -62t76.5 -22q43 0 69 12.5t50 30.5l28 -69q-26 -20 -65 -33.5t-83 -13.5q-74 0 -119 41t-45 114q1 48 21.5 96.5t57 80t79.5 31.5q65 0 100.5 -50t48 -107t19.5 -128
q9 -106 27.5 -212t40.5 -160l-65 -38q-25 56 -42 171z" />
    <glyph glyph-name="uni0664.ss03" horiz-adv-x="611" 
d="M239.5 420q65.5 -50 147.5 -50q47 0 93.5 14.5t85.5 37.5l21 -63q-89 -52 -170 -52q-57 0 -101.5 24.5t-70 63t-28.5 77.5q-4 52 20 99t68.5 76t100.5 29q77 0 159 -65l-29 -54q-26 19 -59.5 31.5t-66.5 12.5q-37 0 -67.5 -15.5t-47.5 -42t-17 -56.5q0 -46 34 -79t95 -33
q71 0 160 48l20 -64q-39 -25 -90.5 -40.5t-104.5 -15.5q-99 0 -179.5 58.5t-121.5 188.5l51 32q32 -112 97.5 -162zM133 43q0 81 -4.5 168t-12.5 152q-10 84 -29 150.5t-46 127.5l66 37q54 -119 77 -307q15 -130 15 -337v-34h-66v43z" />
    <glyph glyph-name="uni0665.ss03" horiz-adv-x="611" 
d="M160.5 375.5q-52.5 -103.5 -52.5 -181.5q0 -59 24 -92t65 -33q35 1 56.5 34.5t20.5 98.5l59 10q3 -71 23 -107.5t52 -36.5q81 0 81 123q0 112 -79.5 213.5t-215.5 210.5l40 64q92 -78 160 -151t113 -160.5t45 -183.5q0 -92 -39.5 -140t-102.5 -48q-55 0 -95 49t-41 157
l59 10q0 -117 -38.5 -166.5t-100.5 -49.5q-69 0 -109.5 53.5t-40.5 139.5q0 20 1 30q8 91 68.5 204t144.5 211l39 -55q-84 -100 -136.5 -203.5z" />
    <glyph glyph-name="uni0666.ss03" horiz-adv-x="611" 
d="M190.5 218.5q68.5 92.5 152.5 157t170 97.5l13 -73q-75 -30 -149 -88t-135.5 -141t-97.5 -184l-60 27q38 112 106.5 204.5zM311 329q-51 0 -90.5 21.5t-61.5 58t-22 80.5q0 43 21.5 85t62.5 71t96 35q7 1 20 1q39 0 73 -13.5t56 -31.5l-28 -53q-24 14 -50.5 21.5
t-63.5 4.5q-55 -4 -88.5 -39.5t-33.5 -80.5q1 -38 31 -62.5t80 -24.5q56 0 119 33l17 -69q-71 -37 -138 -37z" />
    <glyph glyph-name="uni06F0.ss03" horiz-adv-x="611" 
d="M228 71.5q-35 20.5 -55.5 55t-20.5 75.5t20.5 75.5t55.5 55t76 20.5t76 -20.5t55.5 -55t20.5 -75.5t-20.5 -75.5t-55.5 -55t-76 -20.5t-76 20.5zM366.5 139q24.5 25 24.5 63t-24.5 63t-62.5 25q-37 0 -62 -25t-25 -63t24.5 -63t62.5 -25t62.5 25z" />
    <glyph glyph-name="uni06F1.ss03" horiz-adv-x="611" 
d="M278 43q0 81 -4.5 168t-12.5 152q-10 84 -29 150.5t-46 127.5l66 37q54 -119 77 -307q15 -130 15 -337v-34h-66v43z" />
    <glyph glyph-name="uni06F2.ss03" horiz-adv-x="611" 
d="M237 525q14 -27 39.5 -45t68.5 -18q115 0 115 147q0 34 -4 62l58 11q7 -36 7 -77q0 -95 -44 -156t-130 -61q-56 0 -93 25t-58.5 63.5t-46.5 101.5l51 31q23 -57 37 -84zM200 43q0 81 -4.5 168t-12.5 152q-10 84 -29 150.5t-46 127.5l66 37q54 -119 77 -307
q15 -130 15 -337v-34h-66v43z" />
    <glyph glyph-name="uni06F3.ss03" horiz-adv-x="611" 
d="M420 512.5q18 -41.5 55 -41.5q27 0 40.5 27t13.5 74q0 41 -11 96l58 13q14 -61 14 -112q0 -77 -29 -123.5t-86 -46.5q-121 0 -135 240l56 9q6 -94 24 -135.5zM178.5 499q27.5 -37 72.5 -37q47 0 70.5 43t18.5 124l55 9q1 -11 1 -31q0 -64 -17.5 -113.5t-50 -77.5
t-73.5 -28q-45 0 -76.5 24t-53.5 63.5t-48 102.5l47 35q27 -77 54.5 -114zM126 43q0 82 -4.5 169t-13.5 151q-10 84 -29 150.5t-46 127.5l66 37q54 -119 77 -307q15 -130 15 -337v-34h-66z" />
    <glyph glyph-name="uni06F4.ss03" horiz-adv-x="611" 
d="M238.5 420q65.5 -50 147.5 -50q47 0 93.5 14.5t85.5 37.5l21 -63q-89 -52 -170 -52q-57 0 -101.5 24.5t-70 63t-28.5 77.5q-4 52 20 99t68.5 76t100.5 29q77 0 159 -65l-29 -54q-26 19 -59.5 31.5t-66.5 12.5q-37 0 -67.5 -15.5t-47.5 -42t-17 -56.5q0 -46 34 -79t95 -33
q71 0 160 48l20 -64q-39 -25 -90.5 -40.5t-104.5 -15.5q-99 0 -179.5 58.5t-121.5 188.5l51 32q32 -112 97.5 -162zM132 43q0 81 -4.5 168t-12.5 152q-10 84 -29 150.5t-46 127.5l66 37q54 -119 77 -307q15 -130 15 -337v-34h-66v43z" />
    <glyph glyph-name="uni06F5.ss03" horiz-adv-x="611" 
d="M160.5 375.5q-52.5 -103.5 -52.5 -181.5q0 -59 24 -92t65 -33q35 1 56.5 34.5t20.5 98.5l59 10q3 -71 23 -107.5t52 -36.5q81 0 81 123q0 112 -79.5 213.5t-215.5 210.5l40 64q92 -78 160 -151t113 -160.5t45 -183.5q0 -92 -39.5 -140t-102.5 -48q-55 0 -95 49t-41 157
l59 10q0 -117 -38.5 -166.5t-100.5 -49.5q-69 0 -109.5 53.5t-40.5 139.5q0 20 1 30q8 91 68.5 204t144.5 211l39 -55q-84 -100 -136.5 -203.5z" />
    <glyph glyph-name="uni06F6.ss03" horiz-adv-x="611" 
d="M188.5 218.5q68.5 92.5 152.5 157t170 97.5l13 -73q-75 -30 -149 -88t-135.5 -141t-97.5 -184l-60 27q38 112 106.5 204.5zM309 329q-51 0 -90.5 21.5t-61.5 58t-22 80.5q0 43 21.5 85t62.5 71t96 35q7 1 20 1q39 0 73 -13.5t56 -31.5l-28 -53q-24 14 -50.5 21.5
t-63.5 4.5q-55 -4 -88.5 -39.5t-33.5 -80.5q1 -38 31 -62.5t80 -24.5q56 0 119 33l17 -69q-71 -37 -138 -37z" />
    <glyph glyph-name="uni06F7.ss03" horiz-adv-x="611" 
d="M476 465q-51 -114 -92 -241t-51 -224h-64q-8 96 -49 223t-93 241.5t-89 170.5l61 45q38 -61 86.5 -174t89.5 -246.5t57 -250.5h-61q16 117 57 250.5t89.5 247t85.5 173.5l60 -45q-36 -56 -87 -170z" />
    <glyph glyph-name="uni06F8.ss03" horiz-adv-x="611" 
d="M125 202q51 114 92 241t51 224h64q8 -96 49 -223t93 -241.5t89 -170.5l-61 -45q-38 61 -86.5 174t-89.5 246.5t-57 250.5h61q-16 -117 -57 -250.5t-89.5 -247t-85.5 -173.5l-60 45q36 56 87 170z" />
    <glyph glyph-name="uni06F9.ss03" horiz-adv-x="611" 
d="M382 155q-17 115 -24 234q-5 82 -28 151t-78 69q-25 0 -47 -19.5t-35 -51t-13 -65.5q0 -40 26.5 -62t76.5 -22q43 0 69 12.5t50 30.5l28 -69q-26 -20 -65 -33.5t-83 -13.5q-74 0 -119 41t-45 114q1 48 21.5 96.5t57 80t79.5 31.5q65 0 100.5 -50t48 -107t19.5 -128
q9 -106 27.5 -212t40.5 -160l-65 -38q-25 56 -42 171z" />
    <glyph glyph-name="uni06F4.urdu" horiz-adv-x="535" 
d="M157 92q0 65 -17 121.5t-46 118.5q-24 52 -36 88t-12 72t15.5 68t44.5 52.5t66 21.5q50 1 92.5 -36t67 -96t23.5 -119l-62 5q5 87 61.5 165.5t110.5 126.5l39 -59q-50 -42 -95.5 -109t-52.5 -132l-64 4q-1 39 -17.5 81t-43 70t-54.5 28q-28 1 -45.5 -19t-17.5 -52
q0 -24 11.5 -57t30.5 -75l11 -26q56 -126 56 -240q0 -53 -11 -103l-63 18q8 39 8 83z" />
    <glyph glyph-name="uni06F7.urdu" horiz-adv-x="495" 
d="M372.5 5.5q-58.5 -7.5 -121.5 -7.5q-65 0 -122 9t-95 29q-5 30 -5 56q0 95 51 204t134 209.5t178 173.5l13 -68q-76 -66 -149 -157.5t-119 -187.5t-43 -173q57 -20 163 -20q57 0 112.5 5.5t79.5 10.5l11 -66q-29 -10 -87.5 -17.5z" />
    <glyph glyph-name="zero" unicode="0" horiz-adv-x="557" 
d="M279 -10q-109 0 -164.5 76.5t-56.5 224.5v124q0 306 220 306q110 0 164.5 -75t56.5 -226v-121q0 -309 -220 -309zM392.5 603.5q-37.5 58.5 -114.5 58.5q-150 0 -152 -233v-139q0 -120 39 -181t114 -61q148 0 151 236v141q0 120 -37.5 178.5z" />
    <glyph glyph-name="one" unicode="1" horiz-adv-x="557" 
d="M345 0h-70v627l-189 -70v64l247 93h12v-714z" />
    <glyph glyph-name="two" unicode="2" horiz-adv-x="557" 
d="M517 0h-453v52l245 275q57 64 80 108.5t23 87.5q0 63 -37.5 101t-101.5 38q-66 0 -110 -39.5t-45 -118.5h-69q0 59 26 108.5t77 79t121 29.5q97 0 153 -51.5t56 -139.5q0 -100 -120 -233l-214 -239h369v-58z" />
    <glyph glyph-name="three" unicode="3" horiz-adv-x="557" 
d="M195 391h65q70 1 112 37.5t42 95.5q0 67 -36.5 102.5t-105.5 35.5q-66 0 -106 -37.5t-40 -100.5h-70q0 50 25.5 95t74.5 73.5t116 28.5q98 0 154.5 -53t56.5 -145q0 -51 -32.5 -95t-86.5 -63q63 -18 97 -62t34 -108q0 -62 -27.5 -108.5t-77.5 -71.5t-116 -25
q-64 0 -116 24.5t-81.5 70t-29.5 106.5h70q0 -64 43.5 -103.5t113.5 -39.5q73 0 112.5 38t39.5 107q0 68 -43 104t-125 37h-63v57z" />
    <glyph glyph-name="four" unicode="4" horiz-adv-x="557" 
d="M430 233h107v-58h-107v-175h-68v175h-331v40l325 496h74v-478zM112 233h250v385l-21 -35z" />
    <glyph glyph-name="five" unicode="5" horiz-adv-x="557" 
d="M105 361l35 350h358v-65h-299l-24 -223q56 35 129 35q97 0 154 -62.5t57 -168.5q0 -112 -57 -174.5t-160 -62.5q-93 0 -152 52.5t-66 144.5h66q8 -68 47 -103.5t105 -35.5q71 0 109.5 46.5t38.5 131.5q0 77 -43 123.5t-113 46.5q-38 0 -68 -11t-62 -38z" />
    <glyph glyph-name="six" unicode="6" horiz-adv-x="557" 
d="M214 586q-71 -70 -80 -199q29 38 72 58.5t97 20.5q61 0 107.5 -29.5t72 -82.5t25.5 -121q0 -73 -27.5 -128t-76 -85t-111.5 -30q-66 0 -118.5 33.5t-81.5 95t-29 140.5v52q0 105 28 179q33 110 109.5 167t195.5 57h16v-59q-128 1 -199 -69zM193 376q-45 -32 -60 -80v-42
q0 -61 20.5 -107.5t57 -72t82.5 -25.5q65 0 105.5 51t40.5 130q0 81 -40 129.5t-107 48.5q-54 0 -99 -32z" />
    <glyph glyph-name="seven" unicode="7" horiz-adv-x="557" 
d="M509 671l-300 -671h-72l298 653h-397v58h471v-40z" />
    <glyph glyph-name="eight" unicode="8" horiz-adv-x="557" 
d="M456.5 429q-30.5 -43 -82.5 -64q61 -22 96 -69t35 -106q0 -60 -28.5 -105.5t-79.5 -70t-118 -24.5q-103 0 -164.5 54t-61.5 146q0 59 34.5 106t94.5 69q-52 22 -82 65t-30 97q0 89 57.5 141.5t151.5 52.5t151 -53t57 -141q0 -55 -30.5 -98zM392 295q-44 41 -114 41
t-113 -40.5t-43 -105.5q0 -66 42 -104t115 -38q72 0 114.5 38.5t42.5 103.5q0 64 -44 105zM378.5 624q-39.5 38 -99.5 38q-63 0 -101 -36.5t-38 -98.5q0 -59 38 -96t101 -37q62 0 100.5 37t38.5 96t-39.5 97z" />
    <glyph glyph-name="nine" unicode="9" horiz-adv-x="557" 
d="M354 260q-47 -25 -102 -25q-56 0 -102.5 29t-73.5 82.5t-27 126.5q0 74 28 130.5t77.5 87t111.5 30.5q107 0 166.5 -76.5t59.5 -212.5v-45q0 -158 -52 -249q-76 -141 -272 -141h-20v59h20q248 0 255 271q-22 -42 -69 -67zM361 326q44 32 62 83v34q0 101 -42.5 160
t-113.5 59q-38 0 -72 -21t-55.5 -63t-21.5 -103q0 -52 18.5 -93.5t51 -64.5t74.5 -23q55 0 99 32z" />
    <glyph glyph-name="zero.ss02" horiz-adv-x="441" 
d="M138 71.5q-35 20.5 -55.5 55t-20.5 75.5t20.5 75.5t55.5 55t76 20.5t76 -20.5t55.5 -55t20.5 -75.5t-20.5 -75.5t-55.5 -55t-76 -20.5t-76 20.5zM276.5 139q24.5 25 24.5 63t-24.5 63t-62.5 25q-37 0 -62 -25t-25 -63t24.5 -63t62.5 -25t62.5 25z" />
    <glyph glyph-name="one.ss02" horiz-adv-x="366" 
d="M169 43q0 81 -4.5 168t-12.5 152q-10 84 -29 150.5t-46 127.5l66 37q54 -119 77 -307q15 -130 15 -337v-34h-66v43z" />
    <glyph glyph-name="two.ss02" horiz-adv-x="512" 
d="M198 525q14 -27 39.5 -45t68.5 -18q115 0 115 147q0 34 -4 62l58 11q7 -36 7 -77q0 -95 -44 -156t-130 -61q-56 0 -93 25t-58.5 63.5t-46.5 101.5l51 31q23 -57 37 -84zM161 43q0 81 -4.5 168t-12.5 152q-10 84 -29 150.5t-46 127.5l66 37q54 -119 77 -307
q15 -130 15 -337v-34h-66v43z" />
    <glyph glyph-name="three.ss02" horiz-adv-x="656" 
d="M456 512.5q18 -41.5 55 -41.5q27 0 40.5 27t13.5 74q0 41 -11 96l58 13q14 -61 14 -112q0 -77 -29 -123.5t-86 -46.5q-121 0 -135 240l56 9q6 -94 24 -135.5zM214.5 499q27.5 -37 72.5 -37q47 0 70.5 43t18.5 124l55 9q1 -11 1 -31q0 -64 -17.5 -113.5t-50 -77.5
t-73.5 -28q-45 0 -76.5 24t-53.5 63.5t-48 102.5l47 35q27 -77 54.5 -114zM162 43q0 82 -4.5 169t-13.5 151q-10 84 -29 150.5t-46 127.5l66 37q54 -119 77 -307q15 -130 15 -337v-34h-66z" />
    <glyph glyph-name="four.ss02" horiz-adv-x="644" 
d="M275.5 420q65.5 -50 147.5 -50q47 0 93.5 14.5t85.5 37.5l21 -63q-89 -52 -170 -52q-57 0 -101.5 24.5t-70 63t-28.5 77.5q-4 52 20 99t68.5 76t100.5 29q77 0 159 -65l-29 -54q-26 19 -59.5 31.5t-66.5 12.5q-37 0 -67.5 -15.5t-47.5 -42t-17 -56.5q0 -46 34 -79t95 -33
q71 0 160 48l20 -64q-39 -25 -90.5 -40.5t-104.5 -15.5q-99 0 -179.5 58.5t-121.5 188.5l51 32q32 -112 97.5 -162zM169 43q0 81 -4.5 168t-12.5 152q-10 84 -29 150.5t-46 127.5l66 37q54 -119 77 -307q15 -130 15 -337v-34h-66v43z" />
    <glyph glyph-name="five.ss02" horiz-adv-x="604" 
d="M164.5 375.5q-52.5 -103.5 -52.5 -181.5q0 -59 24 -92t65 -33q35 1 56.5 34.5t20.5 98.5l59 10q3 -71 23 -107.5t52 -36.5q81 0 81 123q0 112 -79.5 213.5t-215.5 210.5l40 64q92 -78 160 -151t113 -160.5t45 -183.5q0 -92 -39.5 -140t-102.5 -48q-55 0 -95 49t-41 157
l59 10q0 -117 -38.5 -166.5t-100.5 -49.5q-69 0 -109.5 53.5t-40.5 139.5q0 20 1 30q8 91 68.5 204t144.5 211l39 -55q-84 -100 -136.5 -203.5z" />
    <glyph glyph-name="six.ss02" horiz-adv-x="516" 
d="M143.5 218.5q68.5 92.5 152.5 157t170 97.5l13 -73q-75 -30 -149 -88t-135.5 -141t-97.5 -184l-60 27q38 112 106.5 204.5zM264 329q-51 0 -90.5 21.5t-61.5 58t-22 80.5q0 43 21.5 85t62.5 71t96 35q7 1 20 1q39 0 73 -13.5t56 -31.5l-28 -53q-24 14 -50.5 21.5
t-63.5 4.5q-55 -4 -88.5 -39.5t-33.5 -80.5q1 -38 31 -62.5t80 -24.5q56 0 119 33l17 -69q-71 -37 -138 -37z" />
    <glyph glyph-name="seven.ss02" horiz-adv-x="589" 
d="M470 465q-51 -114 -92 -241t-51 -224h-64q-8 96 -49 223t-93 241.5t-89 170.5l61 45q38 -61 86.5 -174t89.5 -246.5t57 -250.5h-61q16 117 57 250.5t89.5 247t85.5 173.5l60 -45q-36 -56 -87 -170z" />
    <glyph glyph-name="eight.ss02" horiz-adv-x="589" 
d="M119 202q51 114 92 241t51 224h64q8 -96 49 -223t93 -241.5t89 -170.5l-61 -45q-38 61 -86.5 174t-89.5 246.5t-57 250.5h61q-16 -117 -57 -250.5t-89.5 -247t-85.5 -173.5l-60 45q36 56 87 170z" />
    <glyph glyph-name="nine.ss02" horiz-adv-x="480" 
d="M329 155q-17 115 -24 234q-5 82 -28 151t-78 69q-25 0 -47 -19.5t-35 -51t-13 -65.5q0 -40 26.5 -62t76.5 -22q43 0 69 12.5t50 30.5l28 -69q-26 -20 -65 -33.5t-83 -13.5q-74 0 -119 41t-45 114q1 48 21.5 96.5t57 80t79.5 31.5q65 0 100.5 -50t48 -107t19.5 -128
q9 -106 27.5 -212t40.5 -160l-65 -38q-25 56 -42 171z" />
    <glyph glyph-name="zero.ss03" horiz-adv-x="611" 
d="M228 71.5q-35 20.5 -55.5 55t-20.5 75.5t20.5 75.5t55.5 55t76 20.5t76 -20.5t55.5 -55t20.5 -75.5t-20.5 -75.5t-55.5 -55t-76 -20.5t-76 20.5zM366.5 139q24.5 25 24.5 63t-24.5 63t-62.5 25q-37 0 -62 -25t-25 -63t24.5 -63t62.5 -25t62.5 25z" />
    <glyph glyph-name="one.ss03" horiz-adv-x="611" 
d="M278 43q0 81 -4.5 168t-12.5 152q-10 84 -29 150.5t-46 127.5l66 37q54 -119 77 -307q15 -130 15 -337v-34h-66v43z" />
    <glyph glyph-name="two.ss03" horiz-adv-x="611" 
d="M237 525q14 -27 39.5 -45t68.5 -18q115 0 115 147q0 34 -4 62l58 11q7 -36 7 -77q0 -95 -44 -156t-130 -61q-56 0 -93 25t-58.5 63.5t-46.5 101.5l51 31q23 -57 37 -84zM200 43q0 81 -4.5 168t-12.5 152q-10 84 -29 150.5t-46 127.5l66 37q54 -119 77 -307
q15 -130 15 -337v-34h-66v43z" />
    <glyph glyph-name="three.ss03" horiz-adv-x="611" 
d="M420 512.5q18 -41.5 55 -41.5q27 0 40.5 27t13.5 74q0 41 -11 96l58 13q14 -61 14 -112q0 -77 -29 -123.5t-86 -46.5q-121 0 -135 240l56 9q6 -94 24 -135.5zM178.5 499q27.5 -37 72.5 -37q47 0 70.5 43t18.5 124l55 9q1 -11 1 -31q0 -64 -17.5 -113.5t-50 -77.5
t-73.5 -28q-45 0 -76.5 24t-53.5 63.5t-48 102.5l47 35q27 -77 54.5 -114zM126 43q0 82 -4.5 169t-13.5 151q-10 84 -29 150.5t-46 127.5l66 37q54 -119 77 -307q15 -130 15 -337v-34h-66z" />
    <glyph glyph-name="four.ss03" horiz-adv-x="611" 
d="M238.5 420q65.5 -50 147.5 -50q47 0 93.5 14.5t85.5 37.5l21 -63q-89 -52 -170 -52q-57 0 -101.5 24.5t-70 63t-28.5 77.5q-4 52 20 99t68.5 76t100.5 29q77 0 159 -65l-29 -54q-26 19 -59.5 31.5t-66.5 12.5q-37 0 -67.5 -15.5t-47.5 -42t-17 -56.5q0 -46 34 -79t95 -33
q71 0 160 48l20 -64q-39 -25 -90.5 -40.5t-104.5 -15.5q-99 0 -179.5 58.5t-121.5 188.5l51 32q32 -112 97.5 -162zM132 43q0 81 -4.5 168t-12.5 152q-10 84 -29 150.5t-46 127.5l66 37q54 -119 77 -307q15 -130 15 -337v-34h-66v43z" />
    <glyph glyph-name="five.ss03" horiz-adv-x="611" 
d="M160.5 375.5q-52.5 -103.5 -52.5 -181.5q0 -59 24 -92t65 -33q35 1 56.5 34.5t20.5 98.5l59 10q3 -71 23 -107.5t52 -36.5q81 0 81 123q0 112 -79.5 213.5t-215.5 210.5l40 64q92 -78 160 -151t113 -160.5t45 -183.5q0 -92 -39.5 -140t-102.5 -48q-55 0 -95 49t-41 157
l59 10q0 -117 -38.5 -166.5t-100.5 -49.5q-69 0 -109.5 53.5t-40.5 139.5q0 20 1 30q8 91 68.5 204t144.5 211l39 -55q-84 -100 -136.5 -203.5z" />
    <glyph glyph-name="six.ss03" horiz-adv-x="611" 
d="M188.5 218.5q68.5 92.5 152.5 157t170 97.5l13 -73q-75 -30 -149 -88t-135.5 -141t-97.5 -184l-60 27q38 112 106.5 204.5zM309 329q-51 0 -90.5 21.5t-61.5 58t-22 80.5q0 43 21.5 85t62.5 71t96 35q7 1 20 1q39 0 73 -13.5t56 -31.5l-28 -53q-24 14 -50.5 21.5
t-63.5 4.5q-55 -4 -88.5 -39.5t-33.5 -80.5q1 -38 31 -62.5t80 -24.5q56 0 119 33l17 -69q-71 -37 -138 -37z" />
    <glyph glyph-name="seven.ss03" horiz-adv-x="611" 
d="M476 465q-51 -114 -92 -241t-51 -224h-64q-8 96 -49 223t-93 241.5t-89 170.5l61 45q38 -61 86.5 -174t89.5 -246.5t57 -250.5h-61q16 117 57 250.5t89.5 247t85.5 173.5l60 -45q-36 -56 -87 -170z" />
    <glyph glyph-name="eight.ss03" horiz-adv-x="611" 
d="M125 202q51 114 92 241t51 224h64q8 -96 49 -223t93 -241.5t89 -170.5l-61 -45q-38 61 -86.5 174t-89.5 246.5t-57 250.5h61q-16 -117 -57 -250.5t-89.5 -247t-85.5 -173.5l-60 45q36 56 87 170z" />
    <glyph glyph-name="nine.ss03" horiz-adv-x="611" 
d="M382 155q-17 115 -24 234q-5 82 -28 151t-78 69q-25 0 -47 -19.5t-35 -51t-13 -65.5q0 -40 26.5 -62t76.5 -22q43 0 69 12.5t50 30.5l28 -69q-26 -20 -65 -33.5t-83 -13.5q-74 0 -119 41t-45 114q1 48 21.5 96.5t57 80t79.5 31.5q65 0 100.5 -50t48 -107t19.5 -128
q9 -106 27.5 -212t40.5 -160l-65 -38q-25 56 -42 171z" />
    <glyph glyph-name="zero.dnom" horiz-adv-x="363" 
d="M285 37.5q-36 -42.5 -103 -42.5q-66 0 -103 42.5t-38 120.5v68q0 79 37 122t103 43q67 0 103 -42.5t37 -119.5v-70q0 -79 -36 -121.5zM240.5 312q-20.5 28 -59.5 28q-38 0 -58.5 -26.5t-21.5 -78.5v-81q0 -54 21 -82t60 -28q38 0 58 27t21 79v81q0 53 -20.5 81z" />
    <glyph glyph-name="one.dnom" horiz-adv-x="363" 
d="M232 0h-60v313l-111 -31v50l163 53h8v-385z" />
    <glyph glyph-name="two.dnom" horiz-adv-x="363" 
d="M328 0h-283v42l145 140q31 30 45.5 53t14.5 43q0 29 -19 46t-53 17q-39 0 -61 -20.5t-22 -53.5h-60q0 54 40 89t102 35t97.5 -30.5t35.5 -82.5q0 -50 -53 -104l-38 -37l-98 -87h207v-50z" />
    <glyph glyph-name="three.dnom" horiz-adv-x="363" 
d="M130 219h39q40 0 62 16.5t22 44.5t-19.5 44.5t-56.5 16.5q-34 0 -56 -16t-22 -42h-59q0 48 38 78t98 30q64 0 100.5 -29t36.5 -80q0 -28 -18 -50.5t-52 -34.5q38 -10 57.5 -33t19.5 -58q0 -50 -39.5 -80.5t-103.5 -30.5t-104 30.5t-40 81.5h60q0 -27 24 -45t62 -18
q39 0 60.5 17t21.5 47q0 65 -93 65h-38v46z" />
    <glyph glyph-name="four.dnom" horiz-adv-x="363" 
d="M281 139h58v-50h-58v-89h-60v89h-191l-2 37l190 259h63v-246zM91 139h130v171l-13 -21z" />
    <glyph glyph-name="five.dnom" horiz-adv-x="363" 
d="M60 192l24 193h229v-51h-180l-13 -101q36 17 75 17q61 0 96.5 -33.5t35.5 -91.5q0 -61 -37.5 -95.5t-101.5 -34.5q-57 0 -96 30.5t-42 78.5h59q3 -29 23.5 -44.5t55.5 -15.5q39 0 59 21t20 61q0 35 -22.5 56.5t-62.5 21.5q-42 0 -74 -24z" />
    <glyph glyph-name="six.dnom" horiz-adv-x="363" 
d="M151 306.5q-40 -32.5 -45 -94.5q34 42 97 42q57 0 90.5 -34.5t33.5 -93.5q0 -57 -38 -94t-99 -37q-65 0 -105 40.5t-40 108.5v30q0 103 56.5 159t165.5 57v-51q-76 0 -116 -32.5zM136 192q-23 -13 -31 -34v-20q0 -44 23.5 -69t60.5 -25q34 0 56 23t22 59q0 37 -20.5 58
t-58.5 21q-29 0 -52 -13z" />
    <glyph glyph-name="seven.dnom" horiz-adv-x="363" 
d="M325 351l-177 -351h-63l177 335h-233v50h296v-34z" />
    <glyph glyph-name="eight.dnom" horiz-adv-x="363" 
d="M77.5 24.5q-38.5 29.5 -38.5 79.5q0 33 19.5 57.5t53.5 36.5q-63 26 -63 86q0 49 36 78t96 29t96 -29t36 -78q0 -60 -63 -86q36 -14 55 -38t19 -56q0 -50 -38.5 -79.5t-103.5 -29.5q-66 0 -104.5 29.5zM240 60.5q24 17.5 24 47.5q0 29 -23 46.5t-60 17.5t-60 -17.5
t-23 -46.5q0 -30 23.5 -47.5t59.5 -17.5q35 0 59 17.5zM233.5 238.5q19.5 16.5 19.5 42.5q0 27 -19.5 43.5t-52.5 16.5t-52.5 -16t-19.5 -44q0 -27 20 -43t53 -16q32 0 51.5 16.5z" />
    <glyph glyph-name="nine.dnom" horiz-adv-x="363" 
d="M215 75q36 29 40 90q-16 -19 -39.5 -29.5t-52.5 -10.5q-58 0 -92 34.5t-34 93.5q0 60 38.5 99t99.5 39q66 0 103 -40.5t38 -112.5v-32q0 -102 -51.5 -154t-163.5 -55v49q78 0 114 29zM225 184.5q21 12.5 31 34.5v26q0 47 -21.5 71t-59.5 24q-34 0 -56.5 -24.5
t-22.5 -61.5q0 -36 22 -59t58 -23q28 0 49 12.5z" />
    <glyph glyph-name="uni2080" unicode="&#x2080;" horiz-adv-x="363" 
d="M285 37.5q-36 -42.5 -103 -42.5q-66 0 -103 42.5t-38 120.5v68q0 79 37 122t103 43q67 0 103 -42.5t37 -119.5v-70q0 -79 -36 -121.5zM240.5 312q-20.5 28 -59.5 28q-38 0 -58.5 -26.5t-21.5 -78.5v-81q0 -54 21 -82t60 -28q38 0 58 27t21 79v81q0 53 -20.5 81z" />
    <glyph glyph-name="uni2081" unicode="&#x2081;" horiz-adv-x="363" 
d="M232 0h-60v313l-111 -31v50l163 53h8v-385z" />
    <glyph glyph-name="uni2082" unicode="&#x2082;" horiz-adv-x="363" 
d="M328 0h-283v42l145 140q31 30 45.5 53t14.5 43q0 29 -19 46t-53 17q-39 0 -61 -20.5t-22 -53.5h-60q0 54 40 89t102 35t97.5 -30.5t35.5 -82.5q0 -50 -53 -104l-38 -37l-98 -87h207v-50z" />
    <glyph glyph-name="uni2083" unicode="&#x2083;" horiz-adv-x="363" 
d="M130 219h39q40 0 62 16.5t22 44.5t-19.5 44.5t-56.5 16.5q-34 0 -56 -16t-22 -42h-59q0 48 38 78t98 30q64 0 100.5 -29t36.5 -80q0 -28 -18 -50.5t-52 -34.5q38 -10 57.5 -33t19.5 -58q0 -50 -39.5 -80.5t-103.5 -30.5t-104 30.5t-40 81.5h60q0 -27 24 -45t62 -18
q39 0 60.5 17t21.5 47q0 65 -93 65h-38v46z" />
    <glyph glyph-name="uni2084" unicode="&#x2084;" horiz-adv-x="363" 
d="M281 139h58v-50h-58v-89h-60v89h-191l-2 37l190 259h63v-246zM91 139h130v171l-13 -21z" />
    <glyph glyph-name="uni2085" unicode="&#x2085;" horiz-adv-x="363" 
d="M60 192l24 193h229v-51h-180l-13 -101q36 17 75 17q61 0 96.5 -33.5t35.5 -91.5q0 -61 -37.5 -95.5t-101.5 -34.5q-57 0 -96 30.5t-42 78.5h59q3 -29 23.5 -44.5t55.5 -15.5q39 0 59 21t20 61q0 35 -22.5 56.5t-62.5 21.5q-42 0 -74 -24z" />
    <glyph glyph-name="uni2086" unicode="&#x2086;" horiz-adv-x="363" 
d="M151 306.5q-40 -32.5 -45 -94.5q34 42 97 42q57 0 90.5 -34.5t33.5 -93.5q0 -57 -38 -94t-99 -37q-65 0 -105 40.5t-40 108.5v30q0 103 56.5 159t165.5 57v-51q-76 0 -116 -32.5zM136 192q-23 -13 -31 -34v-20q0 -44 23.5 -69t60.5 -25q34 0 56 23t22 59q0 37 -20.5 58
t-58.5 21q-29 0 -52 -13z" />
    <glyph glyph-name="uni2087" unicode="&#x2087;" horiz-adv-x="363" 
d="M325 351l-177 -351h-63l177 335h-233v50h296v-34z" />
    <glyph glyph-name="uni2088" unicode="&#x2088;" horiz-adv-x="363" 
d="M77.5 24.5q-38.5 29.5 -38.5 79.5q0 33 19.5 57.5t53.5 36.5q-63 26 -63 86q0 49 36 78t96 29t96 -29t36 -78q0 -60 -63 -86q36 -14 55 -38t19 -56q0 -50 -38.5 -79.5t-103.5 -29.5q-66 0 -104.5 29.5zM240 60.5q24 17.5 24 47.5q0 29 -23 46.5t-60 17.5t-60 -17.5
t-23 -46.5q0 -30 23.5 -47.5t59.5 -17.5q35 0 59 17.5zM233.5 238.5q19.5 16.5 19.5 42.5q0 27 -19.5 43.5t-52.5 16.5t-52.5 -16t-19.5 -44q0 -27 20 -43t53 -16q32 0 51.5 16.5z" />
    <glyph glyph-name="uni2089" unicode="&#x2089;" horiz-adv-x="363" 
d="M215 75q36 29 40 90q-16 -19 -39.5 -29.5t-52.5 -10.5q-58 0 -92 34.5t-34 93.5q0 60 38.5 99t99.5 39q66 0 103 -40.5t38 -112.5v-32q0 -102 -51.5 -154t-163.5 -55v49q78 0 114 29zM225 184.5q21 12.5 31 34.5v26q0 47 -21.5 71t-59.5 24q-34 0 -56.5 -24.5
t-22.5 -61.5q0 -36 22 -59t58 -23q28 0 49 12.5z" />
    <glyph glyph-name="zero.numr" horiz-adv-x="363" 
d="M285 322.5q-36 -42.5 -103 -42.5q-66 0 -103 42.5t-38 120.5v68q0 79 37 122t103 43q67 0 103 -42.5t37 -119.5v-70q0 -79 -36 -121.5zM240.5 597q-20.5 28 -59.5 28q-38 0 -58.5 -26.5t-21.5 -78.5v-81q0 -54 21 -82t60 -28q38 0 58 27t21 79v81q0 53 -20.5 81z" />
    <glyph glyph-name="one.numr" horiz-adv-x="363" 
d="M232 285h-60v313l-111 -31v50l163 53h8v-385z" />
    <glyph glyph-name="two.numr" horiz-adv-x="363" 
d="M328 285h-283v42l145 140q31 30 45.5 53t14.5 43q0 29 -19 46t-53 17q-39 0 -61 -20.5t-22 -53.5h-60q0 54 40 89t102 35t97.5 -30.5t35.5 -82.5q0 -50 -53 -104l-38 -37l-98 -87h207v-50z" />
    <glyph glyph-name="three.numr" horiz-adv-x="363" 
d="M130 504h39q40 0 62 16.5t22 44.5t-19.5 44.5t-56.5 16.5q-34 0 -56 -16t-22 -42h-59q0 48 38 78t98 30q64 0 100.5 -29t36.5 -80q0 -28 -18 -50.5t-52 -34.5q38 -10 57.5 -33t19.5 -58q0 -50 -39.5 -80.5t-103.5 -30.5t-104 30.5t-40 81.5h60q0 -27 24 -45t62 -18
q39 0 60.5 17t21.5 47q0 65 -93 65h-38v46z" />
    <glyph glyph-name="four.numr" horiz-adv-x="363" 
d="M281 424h58v-50h-58v-89h-60v89h-191l-2 37l190 259h63v-246zM91 424h130v171l-13 -21z" />
    <glyph glyph-name="five.numr" horiz-adv-x="363" 
d="M60 477l24 193h229v-51h-180l-13 -101q36 17 75 17q61 0 96.5 -33.5t35.5 -91.5q0 -61 -37.5 -95.5t-101.5 -34.5q-57 0 -96 30.5t-42 78.5h59q3 -29 23.5 -44.5t55.5 -15.5q39 0 59 21t20 61q0 35 -22.5 56.5t-62.5 21.5q-42 0 -74 -24z" />
    <glyph glyph-name="six.numr" horiz-adv-x="363" 
d="M151 591.5q-40 -32.5 -45 -94.5q34 42 97 42q57 0 90.5 -34.5t33.5 -93.5q0 -57 -38 -94t-99 -37q-65 0 -105 40.5t-40 108.5v30q0 103 56.5 159t165.5 57v-51q-76 0 -116 -32.5zM136 477q-23 -13 -31 -34v-20q0 -44 23.5 -69t60.5 -25q34 0 56 23t22 59q0 37 -20.5 58
t-58.5 21q-29 0 -52 -13z" />
    <glyph glyph-name="seven.numr" horiz-adv-x="363" 
d="M325 636l-177 -351h-63l177 335h-233v50h296v-34z" />
    <glyph glyph-name="eight.numr" horiz-adv-x="363" 
d="M77.5 309.5q-38.5 29.5 -38.5 79.5q0 33 19.5 57.5t53.5 36.5q-63 26 -63 86q0 49 36 78t96 29t96 -29t36 -78q0 -60 -63 -86q36 -14 55 -38t19 -56q0 -50 -38.5 -79.5t-103.5 -29.5q-66 0 -104.5 29.5zM240 345.5q24 17.5 24 47.5q0 29 -23 46.5t-60 17.5t-60 -17.5
t-23 -46.5q0 -30 23.5 -47.5t59.5 -17.5q35 0 59 17.5zM233.5 523.5q19.5 16.5 19.5 42.5q0 27 -19.5 43.5t-52.5 16.5t-52.5 -16t-19.5 -44q0 -27 20 -43t53 -16q32 0 51.5 16.5z" />
    <glyph glyph-name="nine.numr" horiz-adv-x="363" 
d="M215 360q36 29 40 90q-16 -19 -39.5 -29.5t-52.5 -10.5q-58 0 -92 34.5t-34 93.5q0 60 38.5 99t99.5 39q66 0 103 -40.5t38 -112.5v-32q0 -102 -51.5 -154t-163.5 -55v49q78 0 114 29zM225 469.5q21 12.5 31 34.5v26q0 47 -21.5 71t-59.5 24q-34 0 -56.5 -24.5
t-22.5 -61.5q0 -36 22 -59t58 -23q28 0 49 12.5z" />
    <glyph glyph-name="uni2070" unicode="&#x2070;" horiz-adv-x="363" 
d="M285 322.5q-36 -42.5 -103 -42.5q-66 0 -103 42.5t-38 120.5v68q0 79 37 122t103 43q67 0 103 -42.5t37 -119.5v-70q0 -79 -36 -121.5zM240.5 597q-20.5 28 -59.5 28q-38 0 -58.5 -26.5t-21.5 -78.5v-81q0 -54 21 -82t60 -28q38 0 58 27t21 79v81q0 53 -20.5 81z" />
    <glyph glyph-name="uni00B9" unicode="&#xb9;" horiz-adv-x="363" 
d="M232 285h-60v313l-111 -31v50l163 53h8v-385z" />
    <glyph glyph-name="uni00B2" unicode="&#xb2;" horiz-adv-x="363" 
d="M328 285h-283v42l145 140q31 30 45.5 53t14.5 43q0 29 -19 46t-53 17q-39 0 -61 -20.5t-22 -53.5h-60q0 54 40 89t102 35t97.5 -30.5t35.5 -82.5q0 -50 -53 -104l-38 -37l-98 -87h207v-50z" />
    <glyph glyph-name="uni00B3" unicode="&#xb3;" horiz-adv-x="363" 
d="M130 504h39q40 0 62 16.5t22 44.5t-19.5 44.5t-56.5 16.5q-34 0 -56 -16t-22 -42h-59q0 48 38 78t98 30q64 0 100.5 -29t36.5 -80q0 -28 -18 -50.5t-52 -34.5q38 -10 57.5 -33t19.5 -58q0 -50 -39.5 -80.5t-103.5 -30.5t-104 30.5t-40 81.5h60q0 -27 24 -45t62 -18
q39 0 60.5 17t21.5 47q0 65 -93 65h-38v46z" />
    <glyph glyph-name="uni2074" unicode="&#x2074;" horiz-adv-x="363" 
d="M281 424h58v-50h-58v-89h-60v89h-191l-2 37l190 259h63v-246zM91 424h130v171l-13 -21z" />
    <glyph glyph-name="uni2075" unicode="&#x2075;" horiz-adv-x="363" 
d="M60 477l24 193h229v-51h-180l-13 -101q36 17 75 17q61 0 96.5 -33.5t35.5 -91.5q0 -61 -37.5 -95.5t-101.5 -34.5q-57 0 -96 30.5t-42 78.5h59q3 -29 23.5 -44.5t55.5 -15.5q39 0 59 21t20 61q0 35 -22.5 56.5t-62.5 21.5q-42 0 -74 -24z" />
    <glyph glyph-name="uni2076" unicode="&#x2076;" horiz-adv-x="363" 
d="M151 591.5q-40 -32.5 -45 -94.5q34 42 97 42q57 0 90.5 -34.5t33.5 -93.5q0 -57 -38 -94t-99 -37q-65 0 -105 40.5t-40 108.5v30q0 103 56.5 159t165.5 57v-51q-76 0 -116 -32.5zM136 477q-23 -13 -31 -34v-20q0 -44 23.5 -69t60.5 -25q34 0 56 23t22 59q0 37 -20.5 58
t-58.5 21q-29 0 -52 -13z" />
    <glyph glyph-name="uni2077" unicode="&#x2077;" horiz-adv-x="363" 
d="M325 636l-177 -351h-63l177 335h-233v50h296v-34z" />
    <glyph glyph-name="uni2078" unicode="&#x2078;" horiz-adv-x="363" 
d="M77.5 309.5q-38.5 29.5 -38.5 79.5q0 33 19.5 57.5t53.5 36.5q-63 26 -63 86q0 49 36 78t96 29t96 -29t36 -78q0 -60 -63 -86q36 -14 55 -38t19 -56q0 -50 -38.5 -79.5t-103.5 -29.5q-66 0 -104.5 29.5zM240 345.5q24 17.5 24 47.5q0 29 -23 46.5t-60 17.5t-60 -17.5
t-23 -46.5q0 -30 23.5 -47.5t59.5 -17.5q35 0 59 17.5zM233.5 523.5q19.5 16.5 19.5 42.5q0 27 -19.5 43.5t-52.5 16.5t-52.5 -16t-19.5 -44q0 -27 20 -43t53 -16q32 0 51.5 16.5z" />
    <glyph glyph-name="uni2079" unicode="&#x2079;" horiz-adv-x="363" 
d="M215 360q36 29 40 90q-16 -19 -39.5 -29.5t-52.5 -10.5q-58 0 -92 34.5t-34 93.5q0 60 38.5 99t99.5 39q66 0 103 -40.5t38 -112.5v-32q0 -102 -51.5 -154t-163.5 -55v49q78 0 114 29zM225 469.5q21 12.5 31 34.5v26q0 47 -21.5 71t-59.5 24q-34 0 -56.5 -24.5
t-22.5 -61.5q0 -36 22 -59t58 -23q28 0 49 12.5z" />
    <glyph glyph-name="fraction" unicode="&#x2044;" horiz-adv-x="451" 
d="M71 57l-41 27l347 556l41 -27z" />
    <glyph glyph-name="onehalf" unicode="&#xbd;" horiz-adv-x="802" 
d="M217 255h-60v313l-111 -31v50l163 53h8v-385zM227 57l-41 27l347 556l41 -27zM757 64h-283v42l145 140q31 30 45.5 53t14.5 43q0 29 -19 46t-53 17q-39 0 -61 -20.5t-22 -53.5h-60q0 54 40 89t102 35t97.5 -30.5t35.5 -82.5q0 -50 -53 -104l-38 -37l-98 -87h207v-50z" />
    <glyph glyph-name="onequarter" unicode="&#xbc;" horiz-adv-x="747" 
d="M217 255h-60v313l-111 -31v50l163 53h8v-385zM227 57l-41 27l347 556l41 -27zM640 200h58v-50h-58v-89h-60v89h-191l-2 37l190 259h63v-246zM450 200h130v171l-13 -21z" />
    <glyph glyph-name="threequarters" unicode="&#xbe;" horiz-adv-x="773" 
d="M146 490h39q40 0 62 16.5t22 44.5t-19.5 44.5t-56.5 16.5q-34 0 -56 -16t-22 -42h-59q0 48 38 78t98 30q64 0 100.5 -29t36.5 -80q0 -28 -18 -50.5t-52 -34.5q38 -10 57.5 -33t19.5 -58q0 -50 -39.5 -80.5t-103.5 -30.5t-104 30.5t-40 81.5h60q0 -27 24 -45t62 -18
q39 0 60.5 17t21.5 47q0 65 -93 65h-38v46zM267 57l-41 27l347 556l41 -27zM665 204h58v-50h-58v-89h-60v89h-191l-2 37l190 259h63v-246zM475 204h130v171l-13 -21z" />
    <glyph glyph-name="uni200E" unicode="&#x200e;" 
 />
    <glyph glyph-name="uni200F" unicode="&#x200f;" 
 />
    <glyph glyph-name="uniFEFF" unicode="&#xfeff;" 
 />
    <glyph glyph-name="uni200D" unicode="&#x200d;" 
 />
    <glyph glyph-name="uni200C" unicode="&#x200c;" 
 />
    <glyph glyph-name="uni200A" unicode="&#x200a;" horiz-adv-x="64" 
 />
    <glyph glyph-name="uni00A0" unicode="&#xa0;" horiz-adv-x="55" 
 />
    <glyph glyph-name="uni2009" unicode="&#x2009;" horiz-adv-x="116" 
 />
    <glyph glyph-name="uni200B" unicode="&#x200b;" 
 />
    <glyph glyph-name="uni06D4" unicode="&#x6d4;" horiz-adv-x="258" 
d="M91 23q-16 16 -16 38q0 23 16 38.5t38 15.5q23 0 38.5 -15.5t15.5 -38.5q0 -22 -15.5 -38t-38.5 -16q-22 0 -38 16z" />
    <glyph glyph-name="uni060C" unicode="&#x60c;" horiz-adv-x="258" 
d="M77 28.5q-20 22.5 -20 58.5q0 46 30 95t77 77l24 -29q-45 -31 -63.5 -65t-21.5 -56q2 2 9 4.5t16 2.5q22 0 38 -16t16 -39q0 -22 -16.5 -38t-37.5 -16q-31 -1 -51 21.5z" />
    <glyph glyph-name="uni061B" unicode="&#x61b;" horiz-adv-x="251" 
d="M92 22q-16 16 -16 38q0 23 16 38.5t38 15.5q23 0 38.5 -15.5t15.5 -38.5q0 -22 -15.5 -38t-38.5 -16q-22 0 -38 16zM87 277.5q-20 22.5 -20 58.5q0 46 30 95t77 77l24 -29q-45 -31 -63.5 -65t-21.5 -56q2 2 9 4.5t16 2.5q22 0 38 -16t16 -39q0 -22 -16.5 -38t-37.5 -16
q-31 -1 -51 21.5z" />
    <glyph glyph-name="uni061F" unicode="&#x61f;" horiz-adv-x="465" 
d="M217 5q-16 16 -16 38q0 23 16 38.5t38 15.5q23 0 38.5 -15.5t15.5 -38.5q0 -22 -15.5 -38t-38.5 -16q-22 0 -38 16zM325.5 608.5q-34.5 41.5 -91.5 41.5q-54 0 -90.5 -36t-36.5 -87q0 -30 10.5 -51t29 -38.5t56.5 -47.5q12 -8 31 -24q31 -24 39 -54.5t8 -87.5v-49h-52v60
q0 32 -8 53t-34 42l-23 19q-40 31 -62 53t-36 53t-14 73q0 49 24.5 91.5t66.5 67.5t91 25q51 0 92 -27t64 -72t23 -98l-52 -4q-1 56 -35.5 97.5z" />
    <glyph glyph-name="uni066D" unicode="&#x66d;" horiz-adv-x="645" 
d="M195 426l71 -129l-4 -4l-130 69v64h63zM97 279l142 -41v-5l-142 -44l-45 46zM131 106l129 72l4 -4l-69 -131h-64v63zM278 8l40 142h6l44 -141l-46 -45zM451 42l-72 129l4 4l131 -69l-1 -64h-62zM549 189l-142 41v5l141 44l45 -46zM514 362l-129 -72l-4 4l69 131h64v-63z
M368 460l-41 -142h-5l-44 141l45 45zM286 198q-15 15 -15 37q0 20 15 35t37 15q20 0 35 -15t15 -35q0 -23 -14.5 -37.5t-35.5 -14.5q-22 0 -37 15z" />
    <glyph glyph-name="uniFD3E" unicode="&#xfd3e;" horiz-adv-x="365" 
d="M95 253q0 -152 63 -262t149 -185l-38 -47q-97 80 -167.5 205t-70.5 289q0 171 69 292t169 203l38 -47q-212 -182 -212 -448z" />
    <glyph glyph-name="uniFD3F" unicode="&#xfd3f;" horiz-adv-x="365" 
d="M265 545q69 -121 69 -292q0 -164 -70.5 -289t-167.5 -205l-38 47q86 75 149 185t63 262q0 266 -212 448l38 47q100 -82 169 -203z" />
    <glyph glyph-name="period" unicode="." horiz-adv-x="277" 
d="M100 23q-16 16 -16 38q0 23 16 38.5t38 15.5q23 0 38.5 -15.5t15.5 -38.5q0 -22 -15.5 -38t-38.5 -16q-22 0 -38 16z" />
    <glyph glyph-name="comma" unicode="," horiz-adv-x="205" 
d="M77 15v88h69v-77q0 -47 -21 -93.5t-56 -77.5l-42 31q49 66 50 129z" />
    <glyph glyph-name="colon" unicode=":" horiz-adv-x="252" 
d="M87 301q-16 16 -16 38q0 23 16 38.5t38 15.5q23 0 38.5 -15.5t15.5 -38.5q0 -22 -15.5 -38t-38.5 -16q-22 0 -38 16zM87 21q-16 16 -16 38q0 23 16 38.5t38 15.5q23 0 38.5 -15.5t15.5 -38.5q0 -22 -15.5 -38t-38.5 -16q-22 0 -38 16z" />
    <glyph glyph-name="semicolon" unicode=";" horiz-adv-x="300" 
d="M128 15v88h69v-77q0 -47 -21 -93.5t-56 -77.5l-42 31q49 66 50 129zM118 310q-16 16 -16 38q0 23 16 38.5t38 15.5q23 0 38.5 -15.5t15.5 -38.5q0 -22 -15.5 -38t-38.5 -16q-22 0 -38 16z" />
    <glyph glyph-name="ellipsis" unicode="&#x2026;" horiz-adv-x="786" 
d="M108 23q-16 16 -16 38q0 23 16 38.5t38 15.5q23 0 38.5 -15.5t15.5 -38.5q0 -22 -15.5 -38t-38.5 -16q-22 0 -38 16zM354 23q-16 16 -16 38q0 23 16 38.5t38 15.5q23 0 38.5 -15.5t15.5 -38.5q0 -22 -15.5 -38t-38.5 -16q-22 0 -38 16zM601 23q-16 16 -16 38
q0 23 16 38.5t38 15.5q23 0 38.5 -15.5t15.5 -38.5q0 -22 -15.5 -38t-38.5 -16q-22 0 -38 16z" />
    <glyph glyph-name="exclam" unicode="!" horiz-adv-x="252" 
d="M159 199h-58l-5 512h68zM92 7q-16 16 -16 38q0 23 16 38.5t38 15.5q23 0 38.5 -15.5t15.5 -38.5q0 -22 -15.5 -38t-38.5 -16q-22 0 -38 16z" />
    <glyph glyph-name="question" unicode="?" horiz-adv-x="460" 
d="M195 283q14 34 53 75q36 36 63 66q39 48 39 105q0 58 -30.5 91t-86.5 33t-90 -31.5t-34 -83.5h-69q1 79 54 127.5t139 48.5q87 0 136.5 -49t49.5 -134q0 -83 -68 -158q-35 -37 -56 -57q-45 -43 -45 -124h-70q1 57 15 91zM178 9q-16 16 -16 38q0 23 16 38.5t38 15.5
q23 0 38.5 -15.5t15.5 -38.5q0 -22 -15.5 -38t-38.5 -16q-22 0 -38 16z" />
    <glyph glyph-name="bullet" unicode="&#x2022;" horiz-adv-x="419" 
d="M131.5 24q-32.5 32 -32.5 78t32.5 78.5t78.5 32.5t78 -32.5t32 -78.5t-32 -78t-78 -32t-78.5 32z" />
    <glyph glyph-name="asterisk" unicode="*" horiz-adv-x="427" 
d="M171 486l-157 49l18 58l157 -58l-3 176h59l-4 -178l154 59l18 -58l-158 -52l104 -140l-47 -36l-100 146l-96 -144l-48 35z" />
    <glyph glyph-name="numbersign" unicode="#" horiz-adv-x="593" 
d="M370 200h-145l-38 -200h-56l38 200h-122v53h132l38 201h-133v54h143l39 203h56l-39 -203h145l39 203h56l-39 -203h108v-54h-118l-38 -201h119v-53h-129l-38 -200h-57zM234 253h146l38 201h-146z" />
    <glyph glyph-name="slash" unicode="/" horiz-adv-x="402" 
d="M77 -61h-67l297 772h66z" />
    <glyph glyph-name="backslash" unicode="\" horiz-adv-x="402" 
d="M95 711l297 -772h-67l-296 772h66z" />
    <glyph glyph-name="period.001" 
d="M55 622q-16 16 -16 38q0 23 16 38.5t38 15.5q23 0 38.5 -15.5t15.5 -38.5q0 -22 -15.5 -38t-38.5 -16q-22 0 -38 16z" />
    <glyph glyph-name="hyphen" unicode="-" horiz-adv-x="283" 
d="M257 281h-235v58h235v-58z" />
    <glyph glyph-name="underscore" unicode="_" horiz-adv-x="438" 
d="M437 -58h-436v58h436v-58z" />
    <glyph glyph-name="parenleft" unicode="(" horiz-adv-x="365" 
d="M95 253q0 -152 63 -262t149 -185l-38 -47q-97 80 -167.5 205t-70.5 289q0 171 69 292t169 203l38 -47q-212 -182 -212 -448z" />
    <glyph glyph-name="parenright" unicode=")" horiz-adv-x="365" 
d="M265 545q69 -121 69 -292q0 -164 -70.5 -289t-167.5 -205l-38 47q86 75 149 185t63 262q0 266 -212 448l38 47q100 -82 169 -203z" />
    <glyph glyph-name="braceleft" unicode="{" horiz-adv-x="333" 
d="M180 -110q-42 56 -42 146v104q0 125 -110 125v58q110 0 110 124v109q1 89 42 144t126 80l14 -45q-113 -36 -113 -183v-103q0 -117 -89 -155q89 -39 89 -156v-104q2 -143 114 -180l-15 -45q-84 25 -126 81z" />
    <glyph glyph-name="braceright" unicode="}" horiz-adv-x="323" 
d="M132 34v104q0 117 89 156q-89 38 -89 155v103q0 147 -113 183l14 45q85 -25 126 -80t42 -144v-109q0 -124 110 -124v-58q-110 0 -110 -125v-104q0 -90 -42 -146t-126 -81l-15 45q113 37 114 180z" />
    <glyph glyph-name="bracketleft" unicode="[" horiz-adv-x="248" 
d="M246 754h-100v-848h100v-58h-169v965h169v-59z" />
    <glyph glyph-name="bracketright" unicode="]" horiz-adv-x="248" 
d="M1 813h170v-965h-170v58h101v848h-101v59z" />
    <glyph glyph-name="quotedblbase" unicode="&#x201e;" horiz-adv-x="343" 
d="M75 15v88h69v-77q0 -47 -21 -93.5t-56 -77.5l-42 31q49 66 50 129zM210 15v88h69v-77q0 -47 -21 -93.5t-56 -77.5l-42 31q49 66 50 129z" />
    <glyph glyph-name="quotedblleft" unicode="&#x201c;" horiz-adv-x="327" 
d="M264 528v-88h-69v77q0 47 21 93.5t56 77.5l42 -31q-49 -66 -50 -129zM129 528v-88h-69v77q0 47 21 93.5t56 77.5l42 -31q-49 -66 -50 -129z" />
    <glyph glyph-name="quotedblright" unicode="&#x201d;" horiz-adv-x="318" 
d="M63 556v88h69v-77q0 -47 -21 -93.5t-56 -77.5l-42 31q49 66 50 129zM198 556v88h69v-77q0 -47 -21 -93.5t-56 -77.5l-42 31q49 66 50 129z" />
    <glyph glyph-name="quoteleft" unicode="&#x2018;" horiz-adv-x="176" 
d="M113 524v-88h-69v77q0 47 21 93.5t56 77.5l42 -31q-49 -66 -50 -129z" />
    <glyph glyph-name="quoteright" unicode="&#x2019;" horiz-adv-x="176" 
d="M63 614v88h69v-77q0 -47 -21 -93.5t-56 -77.5l-42 31q49 66 50 129z" />
    <glyph glyph-name="guillemotleft" unicode="&#xab;" horiz-adv-x="335" 
d="M285 66l-32 -33q-32 34 -52.5 81.5t-20.5 104.5t20.5 104.5t52.5 81.5l32 -32q-57 -69 -57 -154q0 -82 57 -153zM165 21l-34 -37q-38 43 -63 103t-25 132t25 132t63 103l34 -37q-72 -88 -72 -198t72 -198z" />
    <glyph glyph-name="guillemotright" unicode="&#xbb;" horiz-adv-x="335" 
d="M50 373l32 32q32 -34 52.5 -81.5t20.5 -104.5t-20.5 -104.5t-52.5 -81.5l-32 33q57 71 57 153q0 85 -57 154zM170 417l34 37q38 -43 63 -103t25 -132t-25 -132t-63 -103l-34 37q72 88 72 198t-72 198z" />
    </font>
</defs>
</svg>
