<?xml version="1.0" standalone="no"?>
<!DOCTYPE svg PUBLIC "-//W3C//DTD SVG 1.1//EN" "http://www.w3.org/Graphics/SVG/1.1/DTD/svg11.dtd" >
<svg xmlns="http://www.w3.org/2000/svg" xmlns:xlink="http://www.w3.org/1999/xlink" version="1.1">
<metadata>
Created by FontForge 20170731 at Mon Dec 31 05:38:32 2018
 By Aleksey,,,
Copyright (c) 2019 by www.fontiran.com (Moslem Ebrahimi). All rights reserved.
</metadata>
<defs>
<font id="IRANSansWeb" horiz-adv-x="0" >
  <font-face 
    font-family="IRANSansWeb"
    font-weight="400"
    font-stretch="normal"
    units-per-em="2300"
    panose-1="2 11 5 6 3 8 4 2 2 4"
    ascent="1840"
    descent="-460"
    x-height="1215"
    cap-height="1635"
    bbox="-1106 -1214 3260 2684"
    underline-thickness="100"
    underline-position="-750"
    unicode-range="U+001D-FEFF"
  />
<missing-glyph horiz-adv-x="1229" 
d="M102 -362v1806h1024v-1806h-1024zM217 -248h795v1577h-795v-1577z" />
    <glyph glyph-name="allah" unicode="&#xfedf;&#xfee0;&#x651;&#x64e;&#xfeea;" horiz-adv-x="2052" arabic-form="isolated" 
d="M1065 -3v-3q-33 0 -67 3h-12v1q-5 0 -9.5 0.5t-9.5 1.5q-51 7 -84 31q-40 19 -72.5 49t-58.5 72q-125 -18 -220 -18q-257 0 -358 125q-28 33 -40.5 70t-13.5 72v17q0 26 5 51.5t14 44.5l1 5q41 85 103.5 149t129.5 110t130 75.5t105 45.5q-7 75 -11.5 122.5t-4.5 49.5
l196 17q28 -325 54 -518.5t49 -254.5q46 -122 120 -124q37 -1 66 -1t51 1q45 3 75 26.5t45 57.5q4 8 4 59q0 172 -42 835l198 21q31 -430 46.5 -647t15.5 -221q0 -18 5.5 -46t31.5 -58q25 -29 68 -31h20q50 0 90 9t58 35q18 22 22.5 51t4.5 58q0 9 -75 902l194 44
q69 -916 69 -1009v-2q-2 -83 -68 -181q-63 -93 -244 -93h-19q-16 -3 -32 -3q-35 0 -70 12q-20 2 -38 9q-69 28 -109 65q-11 -8 -20.5 -16t-19.5 -15q-57 -36 -118.5 -46t-113.5 -10h-41zM630 696q-36 -16 -79.5 -39.5t-86 -55.5t-80.5 -72.5t-63 -90.5q-2 -7 -3 -24v-4
q0 -15 11 -28q7 -8 29.5 -21.5t71.5 -21.5q49 -7 112 -7t141 9q-11 58 -24.5 142.5t-28.5 212.5zM1182 1320q-53 0 -87 39q-19 26 -28 63q-7 30 -7 72v19q1 35 5.5 60t5.5 27l78 -17l-3 -22q-2 -11 -2.5 -24.5t-1.5 -27.5q-1 -10 -1 -19q0 -23 4.5 -44.5t13.5 -34.5
q3 -3 7.5 -6t15.5 -3q13 0 25 8t22 20.5t17.5 28t12.5 30.5q7 20 11 39t7 34q2 9 3 17.5t2 16.5l83 -3q0 -8 0.5 -16t1.5 -17q2 -15 5.5 -33.5t9.5 -38.5q4 -14 9 -28.5t12.5 -26.5t17 -20t22.5 -8q17 0 27 7q5 7 12.5 25.5t7.5 61.5q0 22 -6 47t-15 47.5t-18 41t-15 28.5
l70 40q1 -2 11.5 -20.5t22.5 -47.5t22 -64.5t10 -71.5q0 -98 -46 -144q-12 -12 -24.5 -18.5t-24 -9.5t-20.5 -3.5t-14 -0.5q-57 0 -99 51q-17 20 -27 47q-15 -31 -32 -50.5t-34.5 -31t-35 -15.5t-33.5 -4zM1254 1717q19 69 19 140q0 3 -0.5 42t-18.5 105l73 23
q16 -60 19 -143v-14q0 -78 -20 -175z" />
    <glyph glyph-name="riyal" unicode="&#x631;&#xfef3;&#xfe8e;&#x644;" horiz-adv-x="3340" arabic-form="isolated" 
d="M407 339q-14 -22 -27.5 -48.5t-24.5 -57.5q-20 -54 -36.5 -131.5t-16.5 -183.5q0 -66 17.5 -119.5t47 -94.5t68 -71t79.5 -49.5t81.5 -30t75.5 -12.5q13 -1 25 -1q39 0 87.5 7.5t102.5 28.5t103 56t86.5 85.5t60 117t22.5 151.5q0 79 -2.5 187t-6 231t-8.5 253.5
t-10 254.5q-5 146 -11.5 297.5t-14.5 311.5l196 8q8 -161 14.5 -313.5t11.5 -299.5q5 -125 10 -256t8.5 -254.5t6 -232t2.5 -187.5q0 -126 -32 -223.5t-85.5 -170t-123 -121.5t-145.5 -78.5t-153 -40.5q-56 -8 -108 -8q-18 0 -36 1q-61 3 -126.5 19t-128.5 46t-119.5 75.5
t-99.5 108.5t-67 144q-24 77 -24 172v8q1 130 20 223t42 156q26 73 60 122zM1996 196h116q58 0 107 2.5t89 14.5t70 35.5t50 65.5q10 21 15 53q3 21 3 45q0 13 -2 39.5t-13 73t-32 97.5l-87 214l178 88q0 -1 9 -20.5t23.5 -52.5t31.5 -76.5t32 -92.5q45 -145 52 -256
q1 -16 1 -32q0 -91 -30 -160q-30 -68 -73.5 -113t-100.5 -72t-127.5 -38t-152.5 -11h-159v196zM3135 650q14 -47 28 -92.5t25 -91.5q12 -48 24.5 -96.5t23 -96t17.5 -93.5t7 -90q0 -87 -25.5 -168.5t-71 -157.5t-108 -145t-136 -130t-155 -112.5t-165.5 -92.5l-87 176
q105 52 204 120.5t176.5 149.5t124.5 172t47 188q0 37 -6.5 78t-16.5 84t-22 86t-23 84q-24 84 -51 168zM1995 0q-110 0 -187.5 26t-131.5 80q-33 33 -50.5 71t-26 75t-9.5 70.5t-1 57.5q0 8 0.5 47.5t1.5 101.5t1 142q0 79 -1 167q0 86 -2 179t-6.5 180t-11 160.5
t-15.5 120.5l196 36q9 -51 15.5 -125t11 -161t7 -181.5t2.5 -184.5v-502q0 -34 3.5 -63.5t26.5 -51.5q23 -23 68.5 -36t108.5 -13h20v-196h-20zM2041 -327l-162 -162l-164 163l162 163zM2451 -328l-162 -163l-164 164l162 162z" />
    <glyph glyph-name="uni06440622.isol" unicode="&#xfedf;&#xfe82;" horiz-adv-x="1270" arabic-form="isolated" 
d="M1178 591q1 -17 1 -34q0 -43 -9 -100.5t-31.5 -122.5t-56 -122.5t-76.5 -96.5q-66 -60 -155 -103t-195 -68q-91 -19 -184 -22q-20 -1 -39 -1q-74 0 -147 12l34 195q50 -10 109 -10q15 0 60 1.5t123 18.5q-16 89 -47 183.5t-71.5 188.5t-87 184.5t-92 172t-88 150
t-75.5 119t-53 79t-21 29.5l163 114q1 -3 22.5 -34t56.5 -84.5t80 -127t94 -161.5q121 -215 197 -399.5t110 -343.5q41 26 76.5 69.5t60 94.5t37.5 105q8 37 8 72q0 14 -1 28l-103 930l196 19q0 -1 6 -40t15 -105.5t20.5 -156.5t23 -193.5t22 -216t17.5 -223.5zM-139 1428
q9 45 32.5 86.5t57.5 73t75 50t84 18.5q45 0 80 -11t66 -24q27 -11 53.5 -19t57.5 -9h4q22 0 44 11t41.5 27.5t33 32.5t19.5 24l114 -74q-1 -2 -10 -15t-25.5 -31.5t-39.5 -39t-51.5 -37.5t-62.5 -28q-31 -10 -66 -10h-6q-45 0 -82 11.5t-69.5 24t-61.5 21.5q-19 6 -39 6
q-10 0 -21 -2q-18 -2 -34 -17.5t-28.5 -36t-21 -41t-12.5 -32.5z" />
    <glyph glyph-name="uni06440622.fina" unicode="&#xfee0;&#xfe82;" horiz-adv-x="1399" arabic-form="final" 
d="M1419 196v-196h-60q-11 0 -44.5 3.5t-76.5 19.5t-89.5 49.5t-83.5 93.5q-75 -84 -172 -135t-224 -82q-91 -19 -184 -22q-20 -1 -39 -1q-74 0 -147 12l34 195q50 -10 109 -10q15 0 60 1.5t123 18.5q-16 88 -47 182.5t-71.5 188.5t-86.5 185t-92 172.5t-88 150.5t-75 119
t-52.5 78.5t-20.5 29.5l161 114q1 -3 22.5 -34t56.5 -84.5t80 -127t94 -161.5q121 -215 197 -399.5t110 -343.5q39 22 71.5 52t55 66t33.5 78q7 27 7 56q0 15 -2 30q-7 109 -16 226t-19 229.5t-19 213.5t-16.5 177.5t-12 122t-4.5 46.5l196 21q0 -2 2.5 -32.5t7 -83.5
t10.5 -125l13 -156t15 -176.5t16 -186.5t16 -187t15 -177q5 -57 24 -97t48.5 -65.5t66.5 -37t78 -11.5h20zM-139 1428q9 45 32.5 86.5t57.5 73t75 50t84 18.5q45 0 80 -11t66 -24q27 -11 53.5 -19t57.5 -9h4q22 0 44 11t41.5 27.5t33 32.5t19.5 24l114 -74q-1 -2 -10 -15
t-25.5 -31.5t-39.5 -39t-51.5 -37.5t-62.5 -28q-31 -10 -66 -10h-6q-45 0 -82 11.5t-69.5 24t-61.5 21.5q-19 6 -39 6q-10 0 -21 -2q-18 -2 -34 -17.5t-28.5 -36t-21 -41t-12.5 -32.5z" />
    <glyph glyph-name="uni06440623.isol" unicode="&#xfedf;&#xfe84;" horiz-adv-x="1270" arabic-form="isolated" 
d="M1178 591q1 -17 1 -34q0 -43 -9 -100.5t-31.5 -122.5t-56 -122.5t-76.5 -96.5q-66 -60 -155 -103t-195 -68q-91 -19 -184 -22q-20 -1 -39 -1q-74 0 -147 12l34 195q50 -10 109 -10q15 0 60 1.5t123 18.5q-16 89 -47 183.5t-71.5 188.5t-87 184.5t-92 172t-88 150
t-75.5 119t-53 79t-21 29.5l163 114q1 -3 22.5 -34t56.5 -84.5t80 -127t94 -161.5q121 -215 197 -399.5t110 -343.5q41 26 76.5 69.5t60 94.5t37.5 105q8 37 8 72q0 14 -1 28l-103 930l196 19q0 -1 6 -40t15 -105.5t20.5 -156.5t23 -193.5t22 -216t17.5 -223.5zM319 1891
q-33 7 -53 10t-39 3q-15 0 -30.5 -1.5t-31.5 -8.5q-23 -10 -38.5 -27t-23.5 -38q-7 -19 -7 -38v-15t10 -32q11 -20 30 -37t41.5 -27t47.5 -11h4q22 0 42 11l139 75l59 -78l-242 -142l-227 -126l-48 87l179 100q-42 17 -73 49t-48 71q-14 36 -14 74q0 31 9.5 60.5t27 55
t42 45.5t54.5 32q45 19 98 19q23 0 44 -3t38 -7l38 -9z" />
    <glyph glyph-name="uni06440623.fina" unicode="&#xfee0;&#xfe84;" horiz-adv-x="1399" arabic-form="final" 
d="M1419 196v-196h-60q-11 0 -44.5 3.5t-76.5 19.5t-89.5 49.5t-83.5 93.5q-75 -84 -172 -135t-224 -82q-91 -19 -184 -22q-20 -1 -39 -1q-74 0 -147 12l34 195q50 -10 109 -10q15 0 60 1.5t123 18.5q-16 88 -47 182.5t-71.5 188.5t-86.5 185t-92 172.5t-88 150.5t-75 119
t-52.5 78.5t-20.5 29.5l161 114q1 -3 22.5 -34t56.5 -84.5t80 -127t94 -161.5q121 -215 197 -399.5t110 -343.5q39 22 71.5 52t55 66t33.5 78q7 27 7 56q0 15 -2 30q-7 109 -16 226t-19 229.5t-19 213.5t-16.5 177.5t-12 122t-4.5 46.5l196 21q0 -2 2.5 -32.5t7 -83.5
t10.5 -125l13 -156t15 -176.5t16 -186.5t16 -187t15 -177q5 -57 24 -97t48.5 -65.5t66.5 -37t78 -11.5h20zM319 1891q-33 7 -53 10t-39 3q-15 0 -30.5 -1.5t-31.5 -8.5q-23 -10 -38.5 -27t-23.5 -38q-7 -19 -7 -38v-15t10 -32q11 -20 30 -37t41.5 -27t47.5 -11h4q22 0 42 11
l139 75l59 -78l-242 -142l-227 -126l-48 87l179 100q-42 17 -73 49t-48 71q-14 36 -14 74q0 31 9.5 60.5t27 55t42 45.5t54.5 32q45 19 98 19q23 0 44 -3t38 -7l38 -9z" />
    <glyph glyph-name="uni06440625.isol" unicode="&#xfedf;&#xfe88;" horiz-adv-x="1270" arabic-form="isolated" 
d="M1178 591q1 -17 1 -34q0 -43 -9 -100.5t-31.5 -122.5t-56 -122.5t-76.5 -96.5q-66 -60 -155 -103t-195 -68q-91 -19 -184 -22q-20 -1 -39 -1q-74 0 -147 12l34 195q50 -10 109 -10q15 0 60 1.5t123 18.5q-16 89 -47 183.5t-71.5 188.5t-87 184.5t-92 172t-88 150
t-75.5 119t-53 79t-21 29.5l163 114q1 -3 22.5 -34t56.5 -84.5t80 -127t94 -161.5q121 -215 197 -399.5t110 -343.5q41 26 76.5 69.5t60 94.5t37.5 105q8 37 8 72q0 14 -1 28l-103 930l196 19q0 -1 6 -40t15 -105.5t20.5 -156.5t23 -193.5t22 -216t17.5 -223.5zM507 -271
q-33 7 -53 10t-39 3q-15 0 -30.5 -1.5t-31.5 -8.5q-23 -10 -38.5 -27t-23.5 -38q-7 -19 -7 -38v-15t10 -32q11 -20 30 -37t41.5 -27t47.5 -11h4q22 0 42 11l139 75l59 -78l-242 -142l-227 -126l-48 87l179 100q-42 17 -73 49t-48 71q-14 36 -14 74q0 31 9.5 60.5t27 55
t42 45.5t54.5 32q45 19 98 19q23 0 44 -3t38 -7l38 -9z" />
    <glyph glyph-name="uni06440625.fina" unicode="&#xfee0;&#xfe88;" horiz-adv-x="1399" arabic-form="final" 
d="M1419 196v-196h-60q-11 0 -44.5 3.5t-76.5 19.5t-89.5 49.5t-83.5 93.5q-75 -84 -172 -135t-224 -82q-91 -19 -184 -22q-20 -1 -39 -1q-74 0 -147 12l34 195q50 -10 109 -10q15 0 60 1.5t123 18.5q-16 88 -47 182.5t-71.5 188.5t-86.5 185t-92 172.5t-88 150.5t-75 119
t-52.5 78.5t-20.5 29.5l161 114q1 -3 22.5 -34t56.5 -84.5t80 -127t94 -161.5q121 -215 197 -399.5t110 -343.5q39 22 71.5 52t55 66t33.5 78q7 27 7 56q0 15 -2 30q-7 109 -16 226t-19 229.5t-19 213.5t-16.5 177.5t-12 122t-4.5 46.5l196 21q0 -2 2.5 -32.5t7 -83.5
t10.5 -125l13 -156t15 -176.5t16 -186.5t16 -187t15 -177q5 -57 24 -97t48.5 -65.5t66.5 -37t78 -11.5h20zM507 -271q-33 7 -53 10t-39 3q-15 0 -30.5 -1.5t-31.5 -8.5q-23 -10 -38.5 -27t-23.5 -38q-7 -19 -7 -38v-15t10 -32q11 -20 30 -37t41.5 -27t47.5 -11h4q22 0 42 11
l139 75l59 -78l-242 -142l-227 -126l-48 87l179 100q-42 17 -73 49t-48 71q-14 36 -14 74q0 31 9.5 60.5t27 55t42 45.5t54.5 32q45 19 98 19q23 0 44 -3t38 -7l38 -9z" />
    <glyph glyph-name="uni06440627.isol" unicode="&#xfedf;&#xfe8e;" horiz-adv-x="1264" arabic-form="isolated" 
d="M1178 591q1 -17 1 -34q0 -43 -9 -100.5t-31.5 -122.5t-56 -122.5t-76.5 -96.5q-66 -60 -155 -103t-195 -68q-91 -19 -184 -22q-20 -1 -39 -1q-74 0 -147 12l34 195q50 -10 109 -10q15 0 60 1.5t123 18.5q-16 89 -47 183.5t-71.5 188.5t-87 184.5t-92 172t-88 150
t-75.5 119t-53 79t-21 29.5l163 114q1 -3 22.5 -34t56.5 -84.5t80 -127t94 -161.5q121 -215 197 -399.5t110 -343.5q41 26 76.5 69.5t60 94.5t37.5 105q8 37 8 72q0 14 -1 28l-103 930l196 19q0 -1 6 -40t15 -105.5t20.5 -156.5t23 -193.5t22 -216t17.5 -223.5z" />
    <glyph glyph-name="uni06440627.fina" unicode="&#xfee0;&#xfe8e;" horiz-adv-x="1399" arabic-form="final" 
d="M1419 196v-196h-60q-11 0 -44.5 3.5t-76.5 19.5t-89.5 49.5t-83.5 93.5q-75 -84 -172 -135t-224 -82q-91 -19 -184 -22q-20 -1 -39 -1q-74 0 -147 12l34 195q50 -10 109 -10q15 0 60 1.5t123 18.5q-16 88 -47 182.5t-71.5 188.5t-86.5 185t-92 172.5t-88 150.5t-75 119
t-52.5 78.5t-20.5 29.5l161 114q1 -3 22.5 -34t56.5 -84.5t80 -127t94 -161.5q121 -215 197 -399.5t110 -343.5q39 22 71.5 52t55 66t33.5 78q7 27 7 56q0 15 -2 30q-7 109 -16 226t-19 229.5t-19 213.5t-16.5 177.5t-12 122t-4.5 46.5l196 21q0 -2 2.5 -32.5t7 -83.5
t10.5 -125l13 -156t15 -176.5t16 -186.5t16 -187t15 -177q5 -57 24 -97t48.5 -65.5t66.5 -37t78 -11.5h20z" />
    <glyph glyph-name="uni06440671.isol" unicode="&#xfedf;&#xfb51;" horiz-adv-x="1270" 
d="M1178 591q1 -17 1 -34q0 -43 -9 -100.5t-31.5 -122.5t-56 -122.5t-76.5 -96.5q-66 -60 -155 -103t-195 -68q-91 -19 -184 -22q-20 -1 -39 -1q-74 0 -147 12l34 195q50 -10 109 -10q15 0 60 1.5t123 18.5q-16 89 -47 183.5t-71.5 188.5t-87 184.5t-92 172t-88 150
t-75.5 119t-53 79t-21 29.5l163 114q1 -3 22.5 -34t56.5 -84.5t80 -127t94 -161.5q121 -215 197 -399.5t110 -343.5q41 26 76.5 69.5t60 94.5t37.5 105q8 37 8 72q0 14 -1 28l-103 930l196 19q0 -1 6 -40t15 -105.5t20.5 -156.5t23 -193.5t22 -216t17.5 -223.5zM504 1575
q14 11 19 21.5t7 20.5q1 6 1 12q0 9 -4 19t-14 18.5t-24 13.5q-11 3 -22 3h-6q-38 0 -71 -19.5t-57 -45.5q-31 -32 -55 -79q34 -3 65 -3q54 0 95 9t66 30zM609 1671q8 -21 8 -42q0 -3 -1 -16t-10 -34.5t-23.5 -40.5t-31.5 -32q-46 -33 -100 -43.5t-118 -12.5h-16
q-48 0 -81 10.5t-56 25t-39 26.5q-16 11 -36 11h-3q-24 -1 -48 -14t-55 -33l-34 81q42 26 82.5 38t61.5 12q51 0 88 -35q16 29 33 53.5t34 44.5q47 54 106 80q42 19 90 19q54 0 91 -22.5t56 -70.5z" />
    <glyph glyph-name="uni06440671.fina" unicode="&#xfee0;&#xfb51;" horiz-adv-x="1399" 
d="M1419 196v-196h-60q-11 0 -44.5 3.5t-76.5 19.5t-89.5 49.5t-83.5 93.5q-75 -84 -172 -135t-224 -82q-91 -19 -184 -22q-20 -1 -39 -1q-74 0 -147 12l34 195q50 -10 109 -10q15 0 60 1.5t123 18.5q-16 88 -47 182.5t-71.5 188.5t-86.5 185t-92 172.5t-88 150.5t-75 119
t-52.5 78.5t-20.5 29.5l161 114q1 -3 22.5 -34t56.5 -84.5t80 -127t94 -161.5q121 -215 197 -399.5t110 -343.5q39 22 71.5 52t55 66t33.5 78q7 27 7 56q0 15 -2 30q-7 109 -16 226t-19 229.5t-19 213.5t-16.5 177.5t-12 122t-4.5 46.5l196 21q0 -2 2.5 -32.5t7 -83.5
t10.5 -125l13 -156t15 -176.5t16 -186.5t16 -187t15 -177q5 -57 24 -97t48.5 -65.5t66.5 -37t78 -11.5h20zM504 1575q14 11 19 21.5t7 20.5q1 6 1 12q0 9 -4 19t-14 18.5t-24 13.5q-11 3 -22 3h-6q-38 0 -71 -19.5t-57 -45.5q-31 -32 -55 -79q34 -3 65 -3q54 0 95 9t66 30z
M609 1671q8 -21 8 -42q0 -3 -1 -16t-10 -34.5t-23.5 -40.5t-31.5 -32q-46 -33 -100 -43.5t-118 -12.5h-16q-48 0 -81 10.5t-56 25t-39 26.5q-16 11 -36 11h-3q-24 -1 -48 -14t-55 -33l-34 81q42 26 82.5 38t61.5 12q51 0 88 -35q16 29 33 53.5t34 44.5q47 54 106 80
q42 19 90 19q54 0 91 -22.5t56 -70.5z" />
    <glyph glyph-name="yeye" unicode="&#xfbff;&#xfbff;" horiz-adv-x="1728" 
d="M311 -482l-162 -162l-164 163l162 163zM691 -483l-162 -163l-164 164l162 162zM1243 -380l-162 -162l-164 163l162 163zM1623 -381l-162 -163l-164 164l162 162zM1748 0h-27q-101 0 -167 36.5t-108 91.5q-36 -35 -93 -59.5t-125.5 -39.5t-143.5 -22t-147 -7h-84
q-101 0 -167 36.5t-108 91.5q-36 -35 -93 -59.5t-125.5 -39.5t-143.5 -22t-147 -7h-89v197h89q84 0 161 10t135.5 37t92.5 74q31 42 31 107v12q-2 56 -9.5 116t-29.5 137l187 53q9 -35 17 -73.5t14 -78.5t10.5 -80.5t6.5 -79.5q2 -37 9 -78t25 -76t50 -58q29 -22 77 -22h91
q84 0 161 10t135.5 37t92.5 74q31 42 31 107v12q-2 56 -9.5 116t-29.5 137l187 53q9 -35 17 -73.5t14 -78.5t10.5 -80.5t6.5 -79.5q2 -37 9 -78t25 -76t50 -58q30 -22 78 -22h33v-197z" />
    <glyph glyph-name="yeye1" unicode="&#xfbfe;&#xfbff;" horiz-adv-x="1788" 
d="M1244 -345l-162 -162l-164 163l162 163zM1624 -346l-162 -163l-164 164l162 162zM311 -482l-162 -162l-164 163l162 163zM681 -483l-162 -163l-164 164l162 162zM1008 196h49.5t72.5 4t82.5 11.5t74.5 21t60 33.5t39 48q14 31 14 80q0 20 -5.5 71t-37.5 157
q-11 32 -25.5 69.5t-28.5 69.5q-16 38 -33 75l178 88q0 -1 9.5 -20.5t23.5 -52.5t31 -76.5t32 -92.5q53 -164 53 -286q0 -93 -30 -162q-71 -161 -252 -212q-27 -8 -69 -12.5t-86 -6.5t-84 -2.5t-62 -0.5h-161q-101 0 -167 36.5t-108 91.5q-36 -35 -93 -59.5t-125.5 -39.5
t-143.5 -22t-147 -7h-89v197h89q84 0 161 10t135.5 37t92.5 74q31 42 31 107v12q-2 56 -9.5 116t-29.5 137l187 53q9 -35 17 -73.5t14 -78.5t10.5 -80.5t6.5 -79.5q2 -37 9 -78t25 -76t49.5 -58t82.5 -23h157z" />
    <glyph glyph-name="uni0621" unicode="&#x621;" horiz-adv-x="1019" arabic-form="isolated" 
d="M746 503q-9 5 -18.5 8.5t-19.5 7.5q-18 6 -40.5 12.5t-47 10.5t-49 4.5t-46.5 -4.5q-32 -9 -58 -27.5t-43 -43.5t-23 -55q-3 -14 -3 -29q0 -17 4 -34q6 -26 21.5 -50t37.5 -43.5t49 -33t57 -17.5q14 -2 29 -2q21 0 50.5 5t66 17t71.5 28t64 30l60 -128q-41 -17 -79 -33
t-81.5 -34t-95 -38t-117.5 -44l-356 -132l-50 136l280 105q-55 34 -94 87t-53 114q-8 33 -8 66q0 26 8 68t40 90.5t81 84t109 50.5q41 9 82 9q27 0 73 -7t108 -28q14 -5 26.5 -11t25.5 -11z" />
    <glyph glyph-name="uni0622" unicode="&#x622;" horiz-adv-x="707" arabic-form="isolated" 
d="M446 1447q17 -201 27 -380t13 -340q3 -166 3 -299q0 -80 -2.5 -204.5t-16.5 -223.5l-197 11q14 156 19 309q3 85 3 170q0 67 -2 135q-7 263 -18 460t-25 332zM-30 1539q9 45 32.5 86.5t57.5 73t75 50t84 18.5q45 0 80 -11t66 -24q27 -11 53.5 -19t57.5 -9h4q22 0 44 11
t41.5 27.5t33 32.5t19.5 24l114 -74q-1 -2 -10 -15t-25.5 -31.5t-39.5 -39t-51.5 -37.5t-62.5 -28q-31 -10 -66 -10h-6q-45 0 -82 11.5t-69.5 24t-61.5 21.5q-19 6 -39 6q-10 0 -21 -2q-18 -2 -34 -17.5t-28.5 -36t-21 -41t-12.5 -32.5z" />
    <glyph glyph-name="uni0623" unicode="&#x623;" horiz-adv-x="525" arabic-form="isolated" 
d="M356 1447q17 -201 27 -380t13 -340q3 -166 3 -299q0 -80 -2.5 -204.5t-16.5 -223.5l-197 11q14 156 19 309q3 85 3 170q0 67 -2 135q-7 263 -18 460t-25 332zM364 1935q-33 7 -53 10t-39 3q-15 0 -30.5 -1.5t-31.5 -8.5q-23 -10 -38.5 -27t-23.5 -38q-7 -19 -7 -38v-15
t10 -32q11 -20 30 -37t41.5 -27t47.5 -11h4q22 0 42 11l139 75l59 -78l-242 -142l-227 -126l-48 87l179 100q-42 17 -73 49t-48 71q-14 36 -14 74q0 31 9.5 60.5t27 55t42 45.5t54.5 32q45 19 98 19q23 0 44 -3t38 -7l38 -9z" />
    <glyph glyph-name="uni0624" unicode="&#x624;" horiz-adv-x="1068" arabic-form="isolated" 
d="M518 650q-29 0 -55 -22.5t-46.5 -57.5t-34.5 -78.5t-19 -85.5q-3 -23 -3 -45q0 -18 3.5 -44.5t20.5 -47.5q15 -20 37.5 -32.5t48 -20t50 -11t42.5 -4.5q50 -3 94 -3q11 0 42.5 0.5t70.5 3.5q-3 64 -15 121t-31 106t-42.5 88.5t-48.5 68.5q-10 10 -22.5 21.5t-27 21
t-30.5 15.5t-34 6zM77 -509q154 31 276 86t209 124t137.5 146.5t61.5 152.5h-46h-67.5t-98.5 5q-217 13 -321 142q-46 58 -58 134q-7 40 -7 80q0 38 8.5 96.5t39.5 133t73 128.5q51 63 110.5 95.5t123.5 32.5q142 0 261 -128q51 -56 89.5 -129.5t62.5 -157.5t33 -175
q4 -43 4 -86q0 -48 -5 -96q-11 -110 -49 -205.5t-97 -176.5t-136.5 -147t-167 -115.5t-188.5 -83t-202 -49.5zM571 1380q-33 7 -53 10t-39 3q-15 0 -30.5 -1.5t-31.5 -8.5q-23 -10 -38.5 -27t-23.5 -38q-7 -19 -7 -38v-15t10 -32q11 -20 30 -37t41.5 -27t47.5 -11h4
q22 0 42 11l139 75l59 -78l-242 -142l-227 -126l-48 87l179 100q-42 17 -73 49t-48 71q-14 36 -14 74q0 31 9.5 60.5t27 55t42 45.5t54.5 32q45 19 98 19q23 0 44 -3t38 -7l38 -9z" />
    <glyph glyph-name="uni0625" unicode="&#x625;" horiz-adv-x="509" arabic-form="isolated" 
d="M356 1447q17 -201 27 -380t13 -340q3 -166 3 -299q0 -80 -2.5 -204.5t-16.5 -223.5l-197 11q14 156 19 309q3 85 3 170q0 67 -2 135q-7 263 -18 460t-25 332zM370 -231q-33 7 -53 10t-39 3q-15 0 -30.5 -1.5t-31.5 -8.5q-23 -10 -38.5 -27t-23.5 -38q-7 -19 -7 -38v-15
t10 -32q11 -20 30 -37t41.5 -27t47.5 -11h4q22 0 42 11l139 75l59 -78l-242 -142l-227 -126l-48 87l179 100q-42 17 -73 49t-48 71q-14 36 -14 74q0 31 9.5 60.5t27 55t42 45.5t54.5 32q45 19 98 19q23 0 44 -3t38 -7l38 -9z" />
    <glyph glyph-name="uni0626" unicode="&#x626;" horiz-adv-x="1776" arabic-form="isolated" 
d="M1391 832q54 11 105 11q14 0 52 -2.5t86 -13.5t77.5 -23t32.5 -13l-87 -183l-18 8q-19 7 -50 13.5t-71 9.5h-15q-34 0 -70 -7q-42 -4 -87 -26.5t-87.5 -57t-79 -79t-60 -92.5t-30.5 -97q-3 -17 -3 -33q0 -31 10 -59q13 -36 45.5 -58.5t76.5 -37.5t95.5 -26t102 -25.5
t95.5 -36t76 -56.5t45 -87q7 -26 7 -59q0 -32 -7 -71q-18 -99 -87.5 -180.5t-186.5 -139.5q-111 -57 -249.5 -85.5t-303.5 -28.5q-190 0 -334.5 54t-238.5 159q-82 94 -115 218q-22 80 -22 172q0 48 6 99q8 65 22 134.5t30.5 135.5t34 125.5t32 105.5t24 74t11.5 32l191 -67
q-45 -141 -84 -279t-58 -285q-5 -36 -5 -78v-8q0 -38 8 -79.5t26.5 -84t51.5 -79.5q63 -72 169 -108t251 -36q142 0 256 22.5t194.5 60t125.5 85t50 98.5v5q0 29 -32.5 46.5t-86.5 32t-119 30.5t-124.5 44.5t-105 74.5t-60.5 121q-10 51 -10 101q0 29 5.5 82.5t33.5 126.5
t74 138.5t105.5 118t130.5 89.5t149 54zM732 1168q-33 7 -53 10t-39 3q-15 0 -30.5 -1.5t-31.5 -8.5q-23 -10 -38.5 -27t-23.5 -38q-7 -19 -7 -38v-15t10 -32q11 -20 30 -37t41.5 -27t47.5 -11h4q22 0 42 11l139 75l59 -78l-242 -142l-227 -126l-48 87l179 100
q-42 17 -73 49t-48 71q-14 36 -14 74q0 31 9.5 60.5t27 55t42 45.5t54.5 32q45 19 98 19q23 0 44 -3t38 -7l38 -9z" />
    <glyph glyph-name="uni0627" unicode="&#x627;" horiz-adv-x="536" arabic-form="isolated" 
d="M347 1579q43 -406 51 -728q3 -166 3 -312q0 -88 -2.5 -235t-16.5 -313l-197 11q16 224 21 410q2 84 2 161q0 93 -3 176q-20 485 -54 800z" />
    <glyph glyph-name="uni0628" unicode="&#x628;" horiz-adv-x="2013" arabic-form="isolated" 
d="M994 0q-358 3 -575 83q-206 80 -280 229q-42 81 -42 176t39 198q14 36 28.5 66t27.5 52t22 35.5l11 16.5l159 -118q-10 -15 -18.5 -29t-16.5 -28.5t-15.5 -31t-14.5 -37.5q-24 -66 -24 -121q0 -49 20 -89q49 -98 224 -150.5t455 -53.5q79 0 174 6.5t194 23.5t196.5 46.5
t181.5 76.5q-4 45 -19.5 94.5t-36 97.5t-43.5 91.5t-42.5 77t-33 54t-14.5 21.5l166 108q2 -4 25.5 -41.5t54.5 -97t62.5 -134t49.5 -151.5q12 -51 16 -91q1 -11 1 -22q0 -27 -8.5 -56t-34 -58.5t-72.5 -59.5q-45 -28 -105 -53t-129 -45.5t-144.5 -37t-151.5 -27.5t-149 -16
q-63 -5 -120 -5h-18zM1153 -358l-163 -163l-164 164l163 163z" />
    <glyph glyph-name="uni0629" unicode="&#x629;" horiz-adv-x="990" arabic-form="isolated" 
d="M485 0q-5 0 -24.5 0.5t-49 5t-65.5 14.5t-73 28q-96 45 -145 120.5t-49 178.5q0 181 163 377q33 39 63.5 70t53.5 52q-30 27 -48 42t-18 16l126 153q1 -2 21 -19t52.5 -47t73.5 -70.5t84 -88.5q123 -140 183 -261t60 -224t-45.5 -179t-133.5 -119q-32 -16 -65 -25.5
t-63 -15t-56.5 -7t-44.5 -1.5zM497 704q-29 -26 -67.5 -66t-72.5 -88t-57.5 -100t-23.5 -103q0 -15 2.5 -31t11 -31.5t24.5 -30.5t43 -27q19 -9 39 -14.5t37 -8.5t31 -4t21 -1q10 0 26 0.5t35 3.5t40 8t40 14q37 20 53.5 48.5t16.5 73.5q0 66 -51 159t-148 198zM428 1344
l-162 -162l-164 163l162 163zM838 1343l-162 -163l-164 164l162 162z" />
    <glyph glyph-name="uni062A" unicode="&#x62a;" horiz-adv-x="2013" arabic-form="isolated" 
d="M994 0q-358 3 -575 83q-206 80 -280 229q-42 81 -42 176t39 198q14 36 28.5 66t27.5 52t22 35.5l11 16.5l159 -118q-10 -15 -18.5 -29t-16.5 -28.5t-15.5 -31t-14.5 -37.5q-24 -66 -24 -121q0 -49 20 -89q49 -98 224 -150.5t455 -53.5q79 0 174 6.5t194 23.5t196.5 46.5
t181.5 76.5q-4 45 -19.5 94.5t-36 97.5t-43.5 91.5t-42.5 77t-33 54t-14.5 21.5l166 108q2 -4 25.5 -41.5t54.5 -97t62.5 -134t49.5 -151.5q12 -51 16 -91q1 -11 1 -22q0 -27 -8.5 -56t-34 -58.5t-72.5 -59.5q-45 -28 -105 -53t-129 -45.5t-144.5 -37t-151.5 -27.5t-149 -16
q-63 -5 -120 -5h-18zM969 983l-162 -162l-164 163l162 163zM1379 982l-162 -163l-164 164l162 162z" />
    <glyph glyph-name="uni062B" unicode="&#x62b;" horiz-adv-x="2013" arabic-form="isolated" 
d="M994 0q-358 3 -575 83q-206 80 -280 229q-42 81 -42 176t39 198q14 36 28.5 66t27.5 52t22 35.5l11 16.5l159 -118q-10 -15 -18.5 -29t-16.5 -28.5t-15.5 -31t-14.5 -37.5q-24 -66 -24 -121q0 -49 20 -89q49 -98 224 -150.5t455 -53.5q79 0 174 6.5t194 23.5t196.5 46.5
t181.5 76.5q-4 45 -19.5 94.5t-36 97.5t-43.5 91.5t-42.5 77t-33 54t-14.5 21.5l166 108q2 -4 25.5 -41.5t54.5 -97t62.5 -134t49.5 -151.5q12 -51 16 -91q1 -11 1 -22q0 -27 -8.5 -56t-34 -58.5t-72.5 -59.5q-45 -28 -105 -53t-129 -45.5t-144.5 -37t-151.5 -27.5t-149 -16
q-63 -5 -120 -5h-18zM1063 969l162 162l164 -164l-162 -162zM624 970l162 163l164 -164l-162 -163zM865 1271l148 148l149 -149l-148 -148z" />
    <glyph glyph-name="uni062C" unicode="&#x62c;" horiz-adv-x="1647" arabic-form="isolated" 
d="M868 -587q143 0 269 42t250 130l114 -161q-149 -103 -315 -159t-356 -56q-154 0 -288 42t-233.5 122t-157 197t-57.5 266q0 116 41.5 218t115.5 186t176 150.5t222.5 112.5t255.5 70t275 25q-32 14 -62.5 30.5t-60 33.5t-57.5 33.5t-53 29.5q-45 23 -82.5 44.5t-75 39
t-78.5 28.5t-93 12q-41 0 -84 -17.5t-83.5 -46t-75 -64t-58.5 -72.5q-24 15 -44 28t-39 25.5t-38.5 25t-40.5 26.5q36 60 82 111t103 89.5t126.5 62t152.5 29.5q118 -2 227.5 -42.5t215.5 -109.5q79 -52 144.5 -91.5t124 -68t112.5 -48t110 -31.5q-9 -34 -17 -62.5t-16 -56
t-16 -55.5t-17 -61q-41 0 -65.5 1t-50.5 2h-25q-98 0 -212 -15.5t-231.5 -48.5t-225 -82t-191 -112t-135.5 -139.5t-59 -164.5v-9q0 -109 46.5 -191.5t127 -138t185 -82.5t217.5 -27zM1080 -80l-163 -163l-164 164l163 163z" />
    <glyph glyph-name="uni062D" unicode="&#x62d;" horiz-adv-x="1647" arabic-form="isolated" 
d="M868 -587q143 0 269 42t250 130l114 -161q-149 -103 -315 -159t-356 -56q-154 0 -288 42t-233.5 122t-157 197t-57.5 266q0 116 41.5 218t115.5 186t176 150.5t222.5 112.5t255.5 70t275 25q-32 14 -62.5 30.5t-60 33.5t-57.5 33.5t-53 29.5q-45 23 -82.5 44.5t-75 39
t-78.5 28.5t-93 12q-41 0 -84 -17.5t-83.5 -46t-75 -64t-58.5 -72.5q-24 15 -44 28t-39 25.5t-38.5 25t-40.5 26.5q36 60 82 111t103 89.5t126.5 62t152.5 29.5q118 -2 227.5 -42.5t215.5 -109.5q79 -52 144.5 -91.5t124 -68t112.5 -48t110 -31.5q-9 -34 -17 -62.5t-16 -56
t-16 -55.5t-17 -61q-41 0 -65.5 1t-50.5 2h-25q-98 0 -212 -15.5t-231.5 -48.5t-225 -82t-191 -112t-135.5 -139.5t-59 -164.5v-9q0 -109 46.5 -191.5t127 -138t185 -82.5t217.5 -27z" />
    <glyph glyph-name="uni062E" unicode="&#x62e;" horiz-adv-x="1647" arabic-form="isolated" 
d="M868 -587q143 0 269 42t250 130l114 -161q-149 -103 -315 -159t-356 -56q-154 0 -288 42t-233.5 122t-157 197t-57.5 266q0 116 41.5 218t115.5 186t176 150.5t222.5 112.5t255.5 70t275 25q-32 14 -62.5 30.5t-60 33.5t-57.5 33.5t-53 29.5q-45 23 -82.5 44.5t-75 39
t-78.5 28.5t-93 12q-41 0 -84 -17.5t-83.5 -46t-75 -64t-58.5 -72.5q-24 15 -44 28t-39 25.5t-38.5 25t-40.5 26.5q36 60 82 111t103 89.5t126.5 62t152.5 29.5q118 -2 227.5 -42.5t215.5 -109.5q79 -52 144.5 -91.5t124 -68t112.5 -48t110 -31.5q-9 -34 -17 -62.5t-16 -56
t-16 -55.5t-17 -61q-41 0 -65.5 1t-50.5 2h-25q-98 0 -212 -15.5t-231.5 -48.5t-225 -82t-191 -112t-135.5 -139.5t-59 -164.5v-9q0 -109 46.5 -191.5t127 -138t185 -82.5t217.5 -27zM785 1424l-163 -163l-164 164l163 163z" />
    <glyph glyph-name="uni062F" unicode="&#x62f;" horiz-adv-x="1127" arabic-form="isolated" 
d="M545 1q-48 0 -113.5 11.5t-130.5 30.5t-119 42t-79 46l82 188q37 -24 89 -46.5t111 -39t122 -24.5q38 -5 75 -5q23 0 63 3.5t90 23.5t84 61q15 18 15 54q0 26 -8 62q-11 49 -35.5 102.5t-59 107t-76.5 104t-87.5 94.5t-92.5 78t-92 54l81 182q59 -27 118.5 -70t116.5 -97
t108.5 -116.5t94 -129t73 -134t45.5 -130.5q12 -56 11.5 -101t-8.5 -80t-22 -61t-30 -45q-36 -44 -84.5 -75.5t-104.5 -51.5t-116.5 -29t-120.5 -9z" />
    <glyph glyph-name="uni0630" unicode="&#x630;" horiz-adv-x="1127" arabic-form="isolated" 
d="M545 1q-48 0 -113.5 11.5t-130.5 30.5t-119 42t-79 46l82 188q37 -24 89 -46.5t111 -39t122 -24.5q38 -5 75 -5q23 0 63 3.5t90 23.5t84 61q15 18 15 54q0 26 -8 62q-11 49 -35.5 102.5t-59 107t-76.5 104t-87.5 94.5t-92.5 78t-92 54l81 182q59 -27 118.5 -70t116.5 -97
t108.5 -116.5t94 -129t73 -134t45.5 -130.5q12 -56 11.5 -101t-8.5 -80t-22 -61t-30 -45q-36 -44 -84.5 -75.5t-104.5 -51.5t-116.5 -29t-120.5 -9zM625 1484l-163 -163l-164 164l163 163z" />
    <glyph glyph-name="uni0631" unicode="&#x631;" horiz-adv-x="739" arabic-form="isolated" 
d="M494 650q14 -47 28 -92.5t25 -91.5q12 -48 24.5 -96.5t23 -96t17.5 -93.5t7 -90q0 -87 -25.5 -168.5t-71 -157.5t-108 -145t-136 -130t-155 -112.5t-165.5 -92.5l-87 176q105 52 204 120.5t176.5 149.5t124.5 172t47 188q0 37 -6.5 78t-16.5 84t-22 86t-23 84
q-24 84 -51 168z" />
    <glyph glyph-name="uni0632" unicode="&#x632;" horiz-adv-x="739" arabic-form="isolated" 
d="M494 650q14 -47 28 -92.5t25 -91.5q12 -48 24.5 -96.5t23 -96t17.5 -93.5t7 -90q0 -87 -25.5 -168.5t-71 -157.5t-108 -145t-136 -130t-155 -112.5t-165.5 -92.5l-87 176q105 52 204 120.5t176.5 149.5t124.5 172t47 188q0 37 -6.5 78t-16.5 84t-22 86t-23 84
q-24 84 -51 168zM558 1060l-163 -163l-164 164l163 163z" />
    <glyph glyph-name="uni0633" unicode="&#x633;" horiz-adv-x="2692" arabic-form="isolated" 
d="M2428 924q5 -10 18.5 -36t30.5 -64t36 -86t34.5 -101t25.5 -109.5t10 -112.5q-1 -86 -20.5 -161t-60 -131t-104.5 -88t-155 -32q-28 0 -60 8.5t-64 25t-61 41.5t-50 57q-60 -71 -135 -100t-159 -33q-12 -1 -22 -1q-22 0 -45 3.5t-46.5 11.5t-44.5 20t-43 27q1 -17 1 -35
q0 -69 -11.5 -144.5t-42.5 -151.5t-82.5 -141.5t-127.5 -115.5q-93 -63 -208.5 -95t-261.5 -39h-39q-265 0 -434 150q-76 67 -125.5 160.5t-65.5 205.5q-9 63 -9 125q0 38 6 106.5t31.5 161.5t62.5 176.5t79 151.5l159 -117q-13 -17 -30.5 -50.5t-35 -78.5t-33 -99t-26 -112
t-13.5 -118q-1 -17 -1 -33q0 -44 6 -85q4 -26 13.5 -61.5t29 -74t50 -76t76.5 -67t109 -48t148 -18.5h33q426 18 517 298q26 82 29 165v22q0 72 -12 145.5t-35 144.5t-48 130q-24 54 -41.5 83t-17.5 31l167 108l63 -145q27 -63 56.5 -121.5t66 -103.5t82.5 -71
q43 -24 98 -24h9q52 1 85 21t52 53t26.5 77t9.5 94q1 33 1 67v137l203 20l4 -86q1 -25 3.5 -63.5t8.5 -82t17 -87.5t28.5 -79.5t43.5 -57.5t63 -22q34 0 60.5 19.5t44 52.5t26.5 76q6 34 6 70v18q-3 63 -18.5 122t-35.5 111t-42 95t-38 75z" />
    <glyph glyph-name="uni0634" unicode="&#x634;" horiz-adv-x="2692" arabic-form="isolated" 
d="M2428 924q5 -10 18.5 -36t30.5 -64t36 -86t34.5 -101t25.5 -109.5t10 -112.5q-1 -86 -20.5 -161t-60 -131t-104.5 -88t-155 -32q-28 0 -60 8.5t-64 25t-61 41.5t-50 57q-60 -71 -135 -100t-159 -33q-12 -1 -22 -1q-22 0 -45 3.5t-46.5 11.5t-44.5 20t-43 27q1 -17 1 -35
q0 -69 -11.5 -144.5t-42.5 -151.5t-82.5 -141.5t-127.5 -115.5q-93 -63 -208.5 -95t-261.5 -39h-39q-265 0 -434 150q-76 67 -125.5 160.5t-65.5 205.5q-9 63 -9 125q0 38 6 106.5t31.5 161.5t62.5 176.5t79 151.5l159 -117q-13 -17 -30.5 -50.5t-35 -78.5t-33 -99t-26 -112
t-13.5 -118q-1 -17 -1 -33q0 -44 6 -85q4 -26 13.5 -61.5t29 -74t50 -76t76.5 -67t109 -48t148 -18.5h33q426 18 517 298q26 82 29 165v22q0 72 -12 145.5t-35 144.5t-48 130q-24 54 -41.5 83t-17.5 31l167 108l63 -145q27 -63 56.5 -121.5t66 -103.5t82.5 -71
q43 -24 98 -24h9q52 1 85 21t52 53t26.5 77t9.5 94q1 33 1 67v137l203 20l4 -86q1 -25 3.5 -63.5t8.5 -82t17 -87.5t28.5 -79.5t43.5 -57.5t63 -22q34 0 60.5 19.5t44 52.5t26.5 76q6 34 6 70v18q-3 63 -18.5 122t-35.5 111t-42 95t-38 75zM1981 1177l162 162l164 -164
l-162 -162zM1542 1178l162 163l164 -164l-162 -163zM1783 1479l148 148l149 -149l-148 -148z" />
    <glyph glyph-name="uni0635" unicode="&#x635;" horiz-adv-x="2916" arabic-form="isolated" 
d="M828 -649q-207 0 -348 63.5t-218 176.5t-91 269q-4 38 -4 78q0 122 35 261q15 60 34 114t38 97.5t34.5 74t24.5 43.5l166 -106q-25 -42 -50 -100t-44.5 -125t-29.5 -139q-8 -53 -8 -104q0 -19 2.5 -62.5t24.5 -106.5t67 -112.5t116 -81t175 -38.5q33 -2 64 -2
q86 0 177 18.5t169 72.5t124 141.5t51 211.5q1 20 1 40q0 41 -5 92.5t-16 111t-25.5 114.5t-29.5 101.5t-28.5 82t-22.5 56.5l184 77q30 -63 54 -113.5t49 -93.5t54.5 -81.5t71.5 -77.5q18 33 42 73t55 83t67.5 87t80.5 86q90 85 194.5 138.5t213.5 76.5q53 11 104 11
q18 0 60.5 -3t103 -25.5t111.5 -60.5t87 -87.5t54 -109.5q15 -49 15 -102q0 -12 -1 -24q-8 -115 -62.5 -205t-151.5 -153q-54 -35 -113.5 -58t-119 -37t-116 -20t-103.5 -7q-22 -1 -44 -1q-151 0 -292 32.5t-274 125.5q2 -37 2 -73t-2 -71q-10 -160 -67.5 -278t-151 -196
t-218.5 -116.5t-270 -38.5zM1798 209q43 -15 98 -26t116 -16q44 -4 89 -4q18 0 59 1.5t103.5 11.5t120 29.5t104.5 49.5q115 72 127 205v4q0 57 -30 98t-76 65t-99 31q-19 2 -37 2q-33 0 -61 -7q-81 -20 -159 -59t-147 -103q-38 -36 -69.5 -74t-57.5 -75t-46 -71t-35 -62z
" />
    <glyph glyph-name="uni0636" unicode="&#x636;" horiz-adv-x="2916" arabic-form="isolated" 
d="M828 -649q-207 0 -348 63.5t-218 176.5t-91 269q-4 38 -4 78q0 122 35 261q15 60 34 114t38 97.5t34.5 74t24.5 43.5l166 -106q-25 -42 -50 -100t-44.5 -125t-29.5 -139q-8 -53 -8 -104q0 -19 2.5 -62.5t24.5 -106.5t67 -112.5t116 -81t175 -38.5q33 -2 64 -2
q86 0 177 18.5t169 72.5t124 141.5t51 211.5q1 20 1 40q0 41 -5 92.5t-16 111t-25.5 114.5t-29.5 101.5t-28.5 82t-22.5 56.5l184 77q30 -63 54 -113.5t49 -93.5t54.5 -81.5t71.5 -77.5q18 33 42 73t55 83t67.5 87t80.5 86q90 85 194.5 138.5t213.5 76.5q53 11 104 11
q18 0 60.5 -3t103 -25.5t111.5 -60.5t87 -87.5t54 -109.5q15 -49 15 -102q0 -12 -1 -24q-8 -115 -62.5 -205t-151.5 -153q-54 -35 -113.5 -58t-119 -37t-116 -20t-103.5 -7q-22 -1 -44 -1q-151 0 -292 32.5t-274 125.5q2 -37 2 -73t-2 -71q-10 -160 -67.5 -278t-151 -196
t-218.5 -116.5t-270 -38.5zM1798 209q43 -15 98 -26t116 -16q44 -4 89 -4q18 0 59 1.5t103.5 11.5t120 29.5t104.5 49.5q115 72 127 205v4q0 57 -30 98t-76 65t-99 31q-19 2 -37 2q-33 0 -61 -7q-81 -20 -159 -59t-147 -103q-38 -36 -69.5 -74t-57.5 -75t-46 -71t-35 -62z
M2553 1256l-163 -163l-164 164l163 163z" />
    <glyph glyph-name="uni0637" unicode="&#x637;" horiz-adv-x="1816" arabic-form="isolated" 
d="M856 0q-122 0 -225 10.5t-195.5 29.5t-176.5 45.5t-168 58.5l72 185q67 -26 131 -46.5t127 -36.5q42 61 132 178q12 86 18 154t6.5 134.5t-3 141t-10.5 173.5q-8 108 -17 200.5t-17 160t-13.5 106t-5.5 39.5l196 36l3 -26q3 -26 8 -68t11 -96t11.5 -110t11 -110t8.5 -97
q4 -56 6.5 -89.5t3.5 -56.5t2 -41.5t1.5 -43.5t1.5 -63.5t3 -101.5q121 115 236 178.5t225 83.5q38 7 77 7q42 0 104 -12t128.5 -54t110 -107t46.5 -149q1 -15 1 -29q0 -40 -9.5 -86.5t-30.5 -94t-49 -87.5t-56 -68q-86 -84 -178.5 -133.5t-184 -75t-179 -32.5t-163.5 -7z
M641 208q24 -3 46 -4t48 -3h2q49 -2 106 -2h19q47 0 102.5 4.5t117.5 16t122 33t115.5 55t102.5 81.5q19 19 37 44.5t30.5 54t18.5 58.5q3 16 3 31q0 13 -2 25q-8 43 -33 70t-59 42t-73 19q-17 1 -33 1q-21 0 -42 -2q-102 -16 -222 -99.5t-255 -233.5z" />
    <glyph glyph-name="uni0638" unicode="&#x638;" horiz-adv-x="1816" arabic-form="isolated" 
d="M856 0q-122 0 -225 10.5t-195.5 29.5t-176.5 45.5t-168 58.5l72 185q67 -26 131 -46.5t127 -36.5q42 61 132 178q12 86 18 154t6.5 134.5t-3 141t-10.5 173.5q-8 108 -17 200.5t-17 160t-13.5 106t-5.5 39.5l196 36l3 -26q3 -26 8 -68t11 -96t11.5 -110t11 -110t8.5 -97
q4 -56 6.5 -89.5t3.5 -56.5t2 -41.5t1.5 -43.5t1.5 -63.5t3 -101.5q121 115 236 178.5t225 83.5q38 7 77 7q42 0 104 -12t128.5 -54t110 -107t46.5 -149q1 -15 1 -29q0 -40 -9.5 -86.5t-30.5 -94t-49 -87.5t-56 -68q-86 -84 -178.5 -133.5t-184 -75t-179 -32.5t-163.5 -7z
M641 208q24 -3 46 -4t48 -3h2q49 -2 106 -2h19q47 0 102.5 4.5t117.5 16t122 33t115.5 55t102.5 81.5q19 19 37 44.5t30.5 54t18.5 58.5q3 16 3 31q0 13 -2 25q-8 43 -33 70t-59 42t-73 19q-17 1 -33 1q-21 0 -42 -2q-102 -16 -222 -99.5t-255 -233.5zM1483 1404l-163 -163
l-164 164l163 163z" />
    <glyph glyph-name="uni0639" unicode="&#x639;" horiz-adv-x="1532" arabic-form="isolated" 
d="M828 -705q-97 0 -191.5 20t-178 59.5t-152.5 97.5t-117 133.5t-70 168.5q-16 64 -16 137q0 31 3 64q11 124 55.5 225t114 180t160 137.5t192.5 98.5q-73 51 -111.5 117t-46.5 152q-5 31 -5 60q0 62 26 133t87 136t144 105t172 44h20q144 0 295 -96q28 -18 50.5 -35.5
t38 -31.5t25 -23.5t12.5 -10.5l-144 -137q-30 25 -62 51t-67.5 46t-74.5 32q-29 9 -61 9q-11 0 -22 -1q-51 -4 -97.5 -22.5t-80 -51.5t-50.5 -80q-12 -33 -12 -72q0 -17 2 -36q7 -57 41.5 -95t88.5 -59t124 -25q22 -2 44 -2q49 0 103 8l230 36l42 -192q-2 0 -21.5 -3.5
t-54 -9t-81 -13.5t-101.5 -17q-87 -14 -151.5 -28t-116 -30t-94.5 -34.5t-88 -40.5q-24 -11 -56.5 -30t-67.5 -47t-69.5 -64t-63 -80.5t-48 -98.5t-23.5 -116q-1 -16 -1 -31q0 -102 44 -185.5t126.5 -141.5t190.5 -83q82 -19 168 -19q28 0 99.5 4.5t184 46t204.5 117.5
l115 -166q-82 -68 -161 -109t-155 -63.5t-148.5 -30t-141.5 -7.5z" />
    <glyph glyph-name="uni063A" unicode="&#x63a;" horiz-adv-x="1532" arabic-form="isolated" 
d="M828 -705q-97 0 -191.5 20t-178 59.5t-152.5 97.5t-117 133.5t-70 168.5q-16 64 -16 137q0 31 3 64q11 124 55.5 225t114 180t160 137.5t192.5 98.5q-73 51 -111.5 117t-46.5 152q-5 31 -5 60q0 62 26 133t87 136t144 105t172 44h20q144 0 295 -96q28 -18 50.5 -35.5
t38 -31.5t25 -23.5t12.5 -10.5l-144 -137q-30 25 -62 51t-67.5 46t-74.5 32q-29 9 -61 9q-11 0 -22 -1q-51 -4 -97.5 -22.5t-80 -51.5t-50.5 -80q-12 -33 -12 -72q0 -17 2 -36q7 -57 41.5 -95t88.5 -59t124 -25q22 -2 44 -2q49 0 103 8l230 36l42 -192q-2 0 -21.5 -3.5
t-54 -9t-81 -13.5t-101.5 -17q-87 -14 -151.5 -28t-116 -30t-94.5 -34.5t-88 -40.5q-24 -11 -56.5 -30t-67.5 -47t-69.5 -64t-63 -80.5t-48 -98.5t-23.5 -116q-1 -16 -1 -31q0 -102 44 -185.5t126.5 -141.5t190.5 -83q82 -19 168 -19q28 0 99.5 4.5t184 46t204.5 117.5
l115 -166q-82 -68 -161 -109t-155 -63.5t-148.5 -30t-141.5 -7.5zM1075 1711l-163 -163l-164 164l163 163z" />
    <glyph glyph-name="uni0641" unicode="&#x641;" horiz-adv-x="1982" arabic-form="isolated" 
d="M1714 1013q46 -50 85 -124.5t61.5 -162.5t24.5 -184v-7q0 -92 -27 -183q-24 -80 -75 -137t-120.5 -96t-154.5 -62.5t-177.5 -35.5t-188 -16t-187.5 -4q-606 0 -784 304q-40 67 -54 137q-12 60 -12 118q0 9 1 46t14.5 95t29.5 103t29 72.5t14 31.5l174 -95l-9 -19
q-9 -19 -20.5 -50.5t-22 -73t-12.5 -86.5q-1 -12 -1 -25q0 -33 7 -73t33 -82q30 -50 79.5 -88.5t121 -65t166.5 -41.5t217 -18q48 -1 92 -1q87 0 174 6.5t162 21.5t125.5 34.5t85.5 38.5q33 17 53.5 33.5t32.5 30.5h-53.5t-39.5 0.5t-30.5 1t-26.5 1.5q-100 9 -173 40
t-121 91q-15 18 -29 43.5t-22.5 59t-10.5 75.5v17q0 34 6 74q11 64 37 130.5t66.5 120.5t95.5 88.5t124 34.5q133 0 240 -119zM1514 555q52 -3 95 -3q44 0 78 3q-6 33 -14 72t-19 79t-26.5 78t-37.5 69t-50.5 52.5t-65.5 29.5q-3 1 -5 1q-14 0 -32.5 -14t-38 -41.5t-36 -63
t-23.5 -72.5q-4 -22 -4 -42q0 -15 3 -40.5t24 -51.5q18 -24 58 -38.5t94 -17.5zM1649 1479l-163 -163l-164 164l163 163z" />
    <glyph glyph-name="uni0642" unicode="&#x642;" horiz-adv-x="1581" arabic-form="isolated" 
d="M1029 645q-36 0 -78 -52q-13 -16 -26.5 -40.5t-25 -54t-19 -62t-9.5 -63.5v-15q0 -23 4.5 -47.5t19.5 -44.5t38 -32t48.5 -19t50 -10.5t42.5 -4.5q63 -5 116 -5q52 0 90 3q-3 64 -15 121t-30.5 106t-42 88.5t-48.5 68.5q-21 22 -50.5 42.5t-64.5 20.5zM1062 1
q-109 2 -191 39.5t-131 103.5q-33 37 -49 84t-18 100q-1 13 -1 26q0 40 8 87t25 98.5t40.5 96.5t50.5 79q49 63 109 96t124 33q72 0 136.5 -32.5t124.5 -96.5q50 -56 86.5 -129t59 -156.5t31.5 -172.5q6 -62 6 -125q0 -27 -1 -55q-5 -93 -28 -182t-64.5 -168.5t-101 -146.5
t-136.5 -115.5t-171.5 -76t-205.5 -27.5h-2q-91 0 -177 17.5t-161.5 54.5t-139 93t-108.5 133q-52 85 -74 186q-17 72 -17 151q0 32 3 64q8 118 46.5 238t107.5 249l175 -94q-55 -102 -87.5 -199.5t-41.5 -185.5q-4 -37 -4 -72q0 -49 11 -110.5t49 -125.5q30 -49 74.5 -86.5
t100 -63t121 -38.5t137.5 -13q75 0 140 19.5t119 52.5t96 77t71 93t44.5 99.5t17.5 97.5zM972 1213l-162 -162l-164 163l162 163zM1382 1212l-162 -163l-164 164l162 162z" />
    <glyph glyph-name="uni0643" unicode="&#x643;" horiz-adv-x="2024" arabic-form="isolated" 
d="M1862 955q6 -182 10 -291.5t4 -155.5q-1 -51 -11.5 -100.5t-36.5 -98.5q-83 -154 -284 -233q-112 -43 -253.5 -65t-319.5 -22q-360 4 -575 84q-204 78 -280 229q-42 82 -42 177q0 94 39 197q14 36 28.5 66t27.5 52t22 35.5l11 16.5l159 -118q-10 -15 -18.5 -29
t-16.5 -28.5t-15.5 -31t-14.5 -37.5q-24 -66 -24 -121q0 -49 20 -89q49 -98 224 -150.5t455 -53.5q320 0 500 71q136 56 182 143q15 27 20.5 56.5t6.5 58.5q-2 60 -6 169.5t-11 261.5q-4 110 -9.5 205.5t-11 167.5t-9.5 116.5t-5 53.5l196 21q1 -16 5.5 -63.5t10 -120.5
t11.5 -168t11 -205zM1127 962q-33 7 -53 10t-39 3q-15 0 -30.5 -1.5t-31.5 -8.5q-21 -9 -36.5 -24.5t-24 -34t-9.5 -39.5v-5q0 -18 7 -37l-1 1q9 -22 27.5 -40t41.5 -28.5t50 -12.5q7 -1 13 -1q19 0 38 7q26 9 51 21.5t45 24.5q24 14 43 29l59 -78q-39 -29 -98 -62t-144 -80
l-227 -126l-48 87l179 100q-42 17 -73 49t-48 71q-14 35 -14 71q0 4 0.5 26.5t17 59t46.5 65.5t69 45q45 19 98 19q23 0 44 -3t38 -7l38 -9z" />
    <glyph glyph-name="uni0644" unicode="&#x644;" horiz-adv-x="1483" arabic-form="isolated" 
d="M407 339q-14 -22 -27.5 -48.5t-24.5 -57.5q-20 -54 -36.5 -131.5t-16.5 -183.5q0 -66 17.5 -119.5t47 -94.5t68 -71t79.5 -49.5t81.5 -30t75.5 -12.5q13 -1 25 -1q39 0 87.5 7.5t102.5 28.5t103 56t86.5 85.5t60 117t22.5 151.5q0 79 -2.5 187t-6 231t-8.5 253.5
t-10 254.5q-5 146 -11.5 297.5t-14.5 311.5l196 8q8 -161 14.5 -313.5t11.5 -299.5q5 -125 10 -256t8.5 -254.5t6 -232t2.5 -187.5q0 -126 -32 -223.5t-85.5 -170t-123 -121.5t-145.5 -78.5t-153 -40.5q-56 -8 -108 -8q-18 0 -36 1q-61 3 -126.5 19t-128.5 46t-119.5 75.5
t-99.5 108.5t-67 144q-24 77 -24 172v8q1 130 20 223t42 156q26 73 60 122z" />
    <glyph glyph-name="uni0645" unicode="&#x645;" horiz-adv-x="1237" arabic-form="isolated" 
d="M141 -731l-37 927q0 6 0.5 28t7.5 50t24 59t49 55q13 10 31.5 19.5t42.5 14.5q19 3 42 3q6 0 23.5 -0.5t53.5 -10.5q16 45 38 95t49.5 98t61 91.5t74 75.5t87.5 51q41 16 89 16h11q81 -3 147 -35.5t114 -95.5q36 -47 57.5 -110t27.5 -132q2 -28 2 -55q0 -42 -7.5 -97.5
t-34 -115t-70.5 -104.5t-107 -64q-12 -2 -26 -2q-17 0 -43.5 4t-70.5 17.5t-99.5 35t-127.5 50.5l-246 91q0 -2 -0.5 -5.5t-0.5 -15.5q0 -13 1 -38.5t2.5 -71t4 -114.5t6 -169t8.5 -234.5t12 -310.5h-196zM626 320q46 -20 89.5 -36.5t81.5 -30.5t69.5 -22t38.5 -9
q15 24 24.5 59.5t13.5 75.5q3 26 3 52q0 13 -2 38.5t-11 54.5q-15 51 -36.5 79.5t-43.5 42.5t-41.5 17t-30.5 3h-2q-34 0 -76 -44.5t-84 -125.5q-18 -33 -31.5 -66.5t-24.5 -61.5z" />
    <glyph glyph-name="uni0646" unicode="&#x646;" horiz-adv-x="1630" arabic-form="isolated" 
d="M116 -172q-9 63 -9 125q0 38 6 106.5t31.5 161.5t63 176.5t78.5 151.5l159 -117q-13 -18 -30 -51.5t-34.5 -78.5t-33.5 -98.5t-26.5 -111.5t-13.5 -118q-1 -17 -1 -33q0 -44 6 -85q4 -27 15.5 -62.5t34.5 -74t58 -75.5t84.5 -66.5t116 -48t151.5 -18.5q106 0 192 20
t151 58.5t109 94t66 125.5q27 86 29 173v12q0 81 -13 158t-36.5 146.5t-46.5 121t-40.5 81t-18.5 29.5l166 106q3 -5 25 -42.5t50.5 -100t57 -146t44.5 -180.5q12 -77 12 -159q0 -22 -3 -86.5t-39 -172.5q-38 -113 -106.5 -195t-159.5 -135.5t-201.5 -79.5t-233.5 -26
q-128 0 -239.5 31.5t-198.5 95t-144.5 160.5t-77.5 228zM983 646l-163 -163l-164 164l163 163z" />
    <glyph glyph-name="uni0647" unicode="&#x647;" horiz-adv-x="990" arabic-form="isolated" 
d="M485 0q-5 0 -24.5 0.5t-49 5t-65.5 14.5t-73 28q-96 45 -145 120.5t-49 178.5q0 181 163 377q33 39 63.5 70t53.5 52q-30 27 -48 42t-18 16l126 153q1 -2 21 -19t52.5 -47t73.5 -70.5t84 -88.5q123 -140 183 -261t60 -224t-45.5 -179t-133.5 -119q-32 -16 -65 -25.5
t-63 -15t-56.5 -7t-44.5 -1.5zM497 704q-29 -26 -67.5 -66t-72.5 -88t-57.5 -100t-23.5 -103q0 -15 2.5 -31t11 -31.5t24.5 -30.5t43 -27q19 -9 39 -14.5t37 -8.5t31 -4t21 -1q10 0 26 0.5t35 3.5t40 8t40 14q37 20 53.5 48.5t16.5 73.5q0 66 -51 159t-148 198z" />
    <glyph glyph-name="uni0648" unicode="&#x648;" horiz-adv-x="1078" arabic-form="isolated" 
d="M518 650q-29 0 -55 -22.5t-46.5 -57.5t-34.5 -78.5t-19 -85.5q-3 -23 -3 -45q0 -18 3.5 -44.5t20.5 -47.5q15 -20 37.5 -32.5t48 -20t50 -11t42.5 -4.5q50 -3 94 -3q11 0 42.5 0.5t70.5 3.5q-3 64 -15 121t-31 106t-42.5 88.5t-48.5 68.5q-10 10 -22.5 21.5t-27 21
t-30.5 15.5t-34 6zM77 -509q154 31 276 86t209 124t137.5 146.5t61.5 152.5h-46h-67.5t-98.5 5q-217 13 -321 142q-46 58 -58 134q-7 40 -7 80q0 38 8.5 96.5t39.5 133t73 128.5q51 63 110.5 95.5t123.5 32.5q142 0 261 -128q51 -56 89.5 -129.5t62.5 -157.5t33 -175
q4 -43 4 -86q0 -48 -5 -96q-11 -110 -49 -205.5t-97 -176.5t-136.5 -147t-167 -115.5t-188.5 -83t-202 -49.5z" />
    <glyph glyph-name="uni0649" unicode="&#x649;" horiz-adv-x="1793" arabic-form="isolated" 
d="M1391 832q54 11 105 11q14 0 52 -2.5t86 -13.5t77.5 -23t32.5 -13l-87 -183l-18 8q-19 7 -50 13.5t-71 9.5h-15q-34 0 -70 -7q-42 -4 -87 -26.5t-87.5 -57t-79 -79t-60 -92.5t-30.5 -97q-3 -17 -3 -33q0 -31 10 -59q13 -36 45.5 -58.5t76.5 -37.5t95.5 -26t102 -25.5
t95.5 -36t76 -56.5t45 -87q7 -26 7 -59q0 -32 -7 -71q-18 -99 -87.5 -180.5t-186.5 -139.5q-111 -57 -249.5 -85.5t-303.5 -28.5q-190 0 -334.5 54t-238.5 159q-82 94 -115 218q-22 80 -22 172q0 48 6 99q8 65 22 134.5t30.5 135.5t34 125.5t32 105.5t24 74t11.5 32l191 -67
q-45 -141 -84 -279t-58 -285q-5 -36 -5 -78v-8q0 -38 8 -79.5t26.5 -84t51.5 -79.5q63 -72 169 -108t251 -36q142 0 256 22.5t194.5 60t125.5 85t50 98.5v5q0 29 -32.5 46.5t-86.5 32t-119 30.5t-124.5 44.5t-105 74.5t-60.5 121q-10 51 -10 101q0 29 5.5 82.5t33.5 126.5
t74 138.5t105.5 118t130.5 89.5t149 54z" />
    <glyph glyph-name="uni064A" unicode="&#x64a;" horiz-adv-x="1793" arabic-form="isolated" 
d="M1391 832q54 11 105 11q14 0 52 -2.5t86 -13.5t77.5 -23t32.5 -13l-87 -183l-18 8q-19 7 -50 13.5t-71 9.5h-15q-34 0 -70 -7q-42 -4 -87 -26.5t-87.5 -57t-79 -79t-60 -92.5t-30.5 -97q-3 -17 -3 -33q0 -31 10 -59q13 -36 45.5 -58.5t76.5 -37.5t95.5 -26t102 -25.5
t95.5 -36t76 -56.5t45 -87q7 -26 7 -59q0 -32 -7 -71q-18 -99 -87.5 -180.5t-186.5 -139.5q-111 -57 -249.5 -85.5t-303.5 -28.5q-190 0 -334.5 54t-238.5 159q-82 94 -115 218q-22 80 -22 172q0 48 6 99q8 65 22 134.5t30.5 135.5t34 125.5t32 105.5t24 74t11.5 32l191 -67
q-45 -141 -84 -279t-58 -285q-5 -36 -5 -78v-8q0 -38 8 -79.5t26.5 -84t51.5 -79.5q63 -72 169 -108t251 -36q142 0 256 22.5t194.5 60t125.5 85t50 98.5v5q0 29 -32.5 46.5t-86.5 32t-119 30.5t-124.5 44.5t-105 74.5t-60.5 121q-10 51 -10 101q0 29 5.5 82.5t33.5 126.5
t74 138.5t105.5 118t130.5 89.5t149 54zM771 -983l-162 -162l-164 163l162 163zM1181 -984l-162 -163l-164 164l162 162z" />
    <glyph glyph-name="uni066E.init" unicode="&#x66e;" horiz-adv-x="715" 
d="M-20 196h116q58 0 107 2.5t89 14.5t70 35.5t50 65.5q10 21 15 53q3 21 3 45q0 13 -2 39.5t-13 73t-32 97.5l-87 214l178 88q0 -1 9 -20.5t23.5 -52.5t31.5 -76.5t32 -92.5q45 -145 52 -256q1 -16 1 -32q0 -91 -30 -160q-30 -68 -73.5 -113t-100.5 -72t-127.5 -38
t-152.5 -11h-159v196z" />
    <glyph glyph-name="uni066E.medi" unicode="&#x66e;" horiz-adv-x="705" 
d="M725 196v-196h-20q-101 0 -168 34.5t-110 89.5q-63 -63 -163 -93.5t-247 -30.5h-37v196h37q168 0 244 60.5t76 179.5q0 57 -8.5 116t-30.5 135l188 53q10 -35 17 -67.5t12 -68.5t9.5 -78t8.5 -95q3 -37 11 -78t26.5 -76t51 -58t83.5 -23h20z" />
    <glyph glyph-name="uni066E.fina" unicode="&#x66e;" horiz-adv-x="2316" 
d="M1922 164q-40 48 -62 109q-264 -276 -833 -276q-304 2 -503.5 72.5t-289.5 222.5q-29 49 -44.5 101t-19.5 104q-2 26 -2 51t3 62.5t15 82.5q25 95 48.5 150.5t28.5 62.5l173 -95q0 -1 -9 -20t-20 -50t-21.5 -72t-12.5 -86q-1 -12 -1 -25q0 -33 7 -73.5t32 -82.5
q60 -103 214.5 -154t401.5 -52q221 0 376 38.5t258 122.5q46 36 79 79t56.5 89t40 93t29.5 92l190 -52q-5 -18 -11.5 -44.5t-11.5 -54t-8 -53.5q-3 -22 -3 -38v-8q2 -43 13 -90t42 -84q70 -89 233 -90h25v-196h-28q-260 3 -385 164z" />
    <glyph glyph-name="uni066F.init" unicode="&#x66f;" horiz-adv-x="932" 
d="M428 927q-14 0 -33 -13.5t-38 -40.5t-35.5 -66t-25.5 -90q-3 -19 -3 -36q0 -22 6.5 -46t29 -44t58 -30t80.5 -13q51 -2 96 -2q44 0 77 2q-7 97 -37.5 183t-81.5 143q-16 18 -40.5 35.5t-52.5 17.5zM-20 196h20q110 0 203.5 10.5t167 27t124.5 36.5t75 40q13 11 21 20
l16 18h-101q-54 0 -105 8.5t-96 25.5t-82 42.5t-63 58.5q-14 18 -28 43.5t-23 58.5t-11 75v17q0 34 6 75q28 152 107 254q45 60 101 89.5t116 29.5q132 0 240 -117q46 -51 82 -118.5t58.5 -144t30.5 -157.5q3 -35 3 -69q0 -47 -6 -93q-12 -91 -50 -158t-96.5 -114
t-134 -76.5t-163 -46.5t-183.5 -23.5t-195 -7.5h-34v196z" />
    <glyph glyph-name="uni066F.medi" unicode="&#x66f;" horiz-adv-x="1001" 
d="M501 741q-27 0 -58.5 -19.5t-58.5 -55t-44.5 -86t-17.5 -111.5q0 -24 13.5 -51t38 -52.5t59.5 -47t77 -32.5q58 27 89.5 71t41.5 95q6 28 6 56q0 23 -6 60t-26.5 78.5t-50.5 68t-63 26.5zM-20 196h20q75 0 143 5t113 10q-130 114 -130 258q0 94 28.5 177t82.5 152
t124 106q64 34 131 34h11q89 -4 156 -42t111.5 -98t65.5 -135q18 -66 18 -135q0 -9 -2 -53.5t-30.5 -120t-82.5 -134.5q27 -6 59.5 -10t67 -7t69.5 -5t67 -2h19v-196h-20q-125 0 -247 16.5t-237 54.5q-94 -36 -229 -53.5t-288 -17.5h-20v196z" />
    <glyph glyph-name="uni066F.fina" unicode="&#x66f;" horiz-adv-x="1570" 
d="M1062 1q-109 2 -191 39.5t-131 103.5q-33 37 -49 84t-18 100q-1 13 -1 26q0 40 8 87t25 98.5t40.5 96.5t50.5 79q49 63 109 96t124 33q72 0 136.5 -32.5t124.5 -96.5q42 -47 74 -106t55 -125.5t36 -139.5t17 -148h118v-196h-125q-18 -128 -71 -243.5t-141 -203.5
t-210 -140t-278 -52h-2q-91 0 -177 17.5t-161.5 54.5t-139 93t-108.5 133q-52 85 -74 186q-17 72 -17 151q0 32 3 64q8 118 46.5 238t107.5 249l175 -94q-55 -102 -87.5 -199.5t-41.5 -185.5q-4 -37 -4 -72q0 -49 11 -110.5t49 -125.5q30 -49 74.5 -86.5t100 -63t121 -38.5
t137.5 -13q75 0 140 19.5t119 52.5t96 77t71 93t44.5 99.5t17.5 97.5zM1029 645q-36 0 -78 -52q-13 -16 -26.5 -40.5t-25 -54t-19 -62t-9.5 -63.5v-15q0 -23 4.5 -47.5t19.5 -44.5t38 -32t48.5 -19t50 -10.5t42.5 -4.5q63 -5 116 -5q52 0 90 3q-3 64 -15 121t-30.5 106
t-42 88.5t-48.5 68.5q-21 22 -50.5 42.5t-64.5 20.5z" />
    <glyph glyph-name="uni0671" unicode="&#x671;" horiz-adv-x="582" arabic-form="isolated" 
d="M386 1447q17 -201 27 -380t13 -340q3 -166 3 -299q0 -80 -2.5 -204.5t-16.5 -223.5l-197 11q14 156 19 309q3 85 3 170q0 67 -2 135q-7 263 -18 460t-25 332zM470 1699q14 11 19 21.5t7 20.5q1 6 1 12q0 9 -4 19t-14 18.5t-24 13.5q-11 3 -22 3h-6q-38 0 -71 -19.5
t-57 -45.5q-31 -32 -55 -79q34 -3 65 -3q54 0 95 9t66 30zM575 1795q8 -21 8 -42q0 -3 -1 -16t-10 -34.5t-23.5 -40.5t-31.5 -32q-46 -33 -100 -43.5t-118 -12.5h-16q-48 0 -81 10.5t-56 25t-39 26.5q-16 11 -36 11h-3q-24 -1 -48 -14t-55 -33l-34 81q42 26 82.5 38t61.5 12
q51 0 88 -35q16 29 33 53.5t34 44.5q47 54 106 80q42 19 90 19q54 0 91 -22.5t56 -70.5z" />
    <glyph glyph-name="uni0679" unicode="&#x679;" horiz-adv-x="2013" arabic-form="isolated" 
d="M994 0q-358 3 -575 83q-206 80 -280 229q-42 81 -42 176t39 198q14 36 28.5 66t27.5 52t22 35.5l11 16.5l159 -118q-10 -15 -18.5 -29t-16.5 -28.5t-15.5 -31t-14.5 -37.5q-24 -66 -24 -121q0 -49 20 -89q49 -98 224 -150.5t455 -53.5q79 0 174 6.5t194 23.5t196.5 46.5
t181.5 76.5q-4 45 -19.5 94.5t-36 97.5t-43.5 91.5t-42.5 77t-33 54t-14.5 21.5l166 108q2 -4 25.5 -41.5t54.5 -97t62.5 -134t49.5 -151.5q12 -51 16 -91q1 -11 1 -22q0 -27 -8.5 -56t-34 -58.5t-72.5 -59.5q-45 -28 -105 -53t-129 -45.5t-144.5 -37t-151.5 -27.5t-149 -16
q-63 -5 -120 -5h-18zM1008 813q-55 2 -99.5 7t-83.5 12.5t-74.5 18t-71.5 24.5l32 79q29 -11 56 -19.5t54 -15.5l56 76q6 37 8.5 66t3 57.5t-1.5 60.5t-5 75q-3 34 -5.5 61.5t-5 52.5t-5.5 49.5t-7 52.5l84 16l3 -24q3 -24 6.5 -57.5t7.5 -71t6 -64.5q3 -36 4 -52t1.5 -28.5
t1 -31t1.5 -58.5q103 97 197 112q15 2 30 2q18 0 44.5 -5t55.5 -22t48.5 -45t21.5 -65q1 -7 1 -13q0 -17 -4.5 -36.5t-13.5 -40t-21 -38t-24 -29.5q-37 -36 -76.5 -57t-78.5 -32t-76.5 -14t-69.5 -3zM915 903q21 -3 40 -3h2q31 -1 67 -1t74 7t76.5 24t75.5 50q27 24 34 52
q2 11 2 20q0 17 -8 36t-32 32q-17 9 -39 9q-11 0 -22 -2q-89 -14 -205 -143z" />
    <glyph glyph-name="uni067E" unicode="&#x67e;" horiz-adv-x="2013" arabic-form="isolated" 
d="M994 0q-358 3 -575 83q-206 80 -280 229q-42 81 -42 176t39 198q14 36 28.5 66t27.5 52t22 35.5l11 16.5l159 -118q-10 -15 -18.5 -29t-16.5 -28.5t-15.5 -31t-14.5 -37.5q-24 -66 -24 -121q0 -49 20 -89q49 -98 224 -150.5t455 -53.5q79 0 174 6.5t194 23.5t196.5 46.5
t181.5 76.5q-4 45 -19.5 94.5t-36 97.5t-43.5 91.5t-42.5 77t-33 54t-14.5 21.5l166 108q2 -4 25.5 -41.5t54.5 -97t62.5 -134t49.5 -151.5q12 -51 16 -91q1 -11 1 -22q0 -27 -8.5 -56t-34 -58.5t-72.5 -59.5q-45 -28 -105 -53t-129 -45.5t-144.5 -37t-151.5 -27.5t-149 -16
q-63 -5 -120 -5h-18zM1212 -195l162 -162l-164 -164l-162 162zM775 -196l162 -163l-164 -164l-162 163zM997 -512l148 -148l-149 -149l-148 148z" />
    <glyph glyph-name="uni0686" unicode="&#x686;" horiz-adv-x="1647" arabic-form="isolated" 
d="M868 -587q143 0 269 42t250 130l114 -161q-149 -103 -315 -159t-356 -56q-154 0 -288 42t-233.5 122t-157 197t-57.5 266q0 116 41.5 218t115.5 186t176 150.5t222.5 112.5t255.5 70t275 25q-32 14 -62.5 30.5t-60 33.5t-57.5 33.5t-53 29.5q-45 23 -82.5 44.5t-75 39
t-78.5 28.5t-93 12q-41 0 -84 -17.5t-83.5 -46t-75 -64t-58.5 -72.5q-24 15 -44 28t-39 25.5t-38.5 25t-40.5 26.5q36 60 82 111t103 89.5t126.5 62t152.5 29.5q118 -2 227.5 -42.5t215.5 -109.5q79 -52 144.5 -91.5t124 -68t112.5 -48t110 -31.5q-9 -34 -17 -62.5t-16 -56
t-16 -55.5t-17 -61q-41 0 -65.5 1t-50.5 2h-25q-98 0 -212 -15.5t-231.5 -48.5t-225 -82t-191 -112t-135.5 -139.5t-59 -164.5v-9q0 -109 46.5 -191.5t127 -138t185 -82.5t217.5 -27zM1137 147l162 -162l-164 -164l-162 162zM700 146l162 -163l-164 -164l-162 163zM922 -170
l148 -148l-149 -149l-148 148z" />
    <glyph glyph-name="uni0688" unicode="&#x688;" horiz-adv-x="1138" arabic-form="isolated" 
d="M545 1q-48 0 -113.5 11.5t-130.5 30.5t-119 42t-79 46l82 188q37 -24 89 -46.5t111 -39t122 -24.5q38 -5 75 -5q23 0 63 3.5t90 23.5t84 61q15 18 15 54q0 26 -8 62q-11 49 -35.5 102.5t-59 107t-76.5 104t-87.5 94.5t-92.5 78t-92 54l81 182q59 -27 118.5 -70t116.5 -97
t108.5 -116.5t94 -129t73 -134t45.5 -130.5q12 -56 11.5 -101t-8.5 -80t-22 -61t-30 -45q-36 -44 -84.5 -75.5t-104.5 -51.5t-116.5 -29t-120.5 -9zM513 1293q-55 2 -99.5 7t-83.5 12.5t-74.5 18t-71.5 24.5l32 79q29 -11 56 -19.5t54 -15.5l56 76q6 37 8.5 66t3 57.5
t-1.5 60.5t-5 75q-3 34 -5.5 61.5t-5 52.5t-5.5 49.5t-7 52.5l84 16l3 -24q3 -24 6.5 -57.5t7.5 -71t6 -64.5q3 -36 4 -52t1.5 -28.5t1 -31t1.5 -58.5q103 97 197 112q15 2 30 2q18 0 44.5 -5t55.5 -22t48.5 -45t21.5 -65q1 -7 1 -13q0 -17 -4.5 -36.5t-13.5 -40t-21 -38
t-24 -29.5q-37 -36 -76.5 -57t-78.5 -32t-76.5 -14t-69.5 -3zM420 1383q21 -3 40 -3h2q31 -1 67 -1t74 7t76.5 24t75.5 50q27 24 34 52q2 11 2 20q0 17 -8 36t-32 32q-17 9 -39 9q-11 0 -22 -2q-89 -14 -205 -143z" />
    <glyph glyph-name="uni0691" unicode="&#x691;" horiz-adv-x="749" arabic-form="isolated" 
d="M494 650q14 -47 28 -92.5t25 -91.5q12 -48 24.5 -96.5t23 -96t17.5 -93.5t7 -90q0 -87 -25.5 -168.5t-71 -157.5t-108 -145t-136 -130t-155 -112.5t-165.5 -92.5l-87 176q105 52 204 120.5t176.5 149.5t124.5 172t47 188q0 37 -6.5 78t-16.5 84t-22 86t-23 84
q-24 84 -51 168zM405 827q-55 2 -99.5 7t-83.5 12.5t-74.5 18t-71.5 24.5l32 79q29 -11 56 -19.5t54 -15.5l56 76q6 37 8.5 66t3 57.5t-1.5 60.5t-5 75q-3 34 -5.5 61.5t-5 52.5t-5.5 49.5t-7 52.5l84 16l3 -24q3 -24 6.5 -57.5t7.5 -71t6 -64.5q3 -36 4 -52t1.5 -28.5
t1 -31t1.5 -58.5q103 97 197 112q15 2 30 2q18 0 44.5 -5t55.5 -22t48.5 -45t21.5 -65q1 -7 1 -13q0 -17 -4.5 -36.5t-13.5 -40t-21 -38t-24 -29.5q-37 -36 -76.5 -57t-78.5 -32t-76.5 -14t-69.5 -3zM312 917q21 -3 40 -3h2q31 -1 67 -1t74 7t76.5 24t75.5 50q27 24 34 52
q2 11 2 20q0 17 -8 36t-32 32q-17 9 -39 9q-11 0 -22 -2q-89 -14 -205 -143z" />
    <glyph glyph-name="uni0698" unicode="&#x698;" horiz-adv-x="760" arabic-form="isolated" 
d="M494 650q14 -47 28 -92.5t25 -91.5q12 -48 24.5 -96.5t23 -96t17.5 -93.5t7 -90q0 -87 -25.5 -168.5t-71 -157.5t-108 -145t-136 -130t-155 -112.5t-165.5 -92.5l-87 176q105 52 204 120.5t176.5 149.5t124.5 172t47 188q0 37 -6.5 78t-16.5 84t-22 86t-23 84
q-24 84 -51 168zM444 989l162 162l164 -164l-162 -162zM5 990l162 163l164 -164l-162 -163zM246 1291l148 148l149 -149l-148 -148z" />
    <glyph glyph-name="uni06A9" unicode="&#x6a9;" horiz-adv-x="2138" arabic-form="isolated" 
d="M2136 1460l-762 -319q79 -67 158.5 -135.5t147.5 -140t118.5 -145.5t71.5 -152q12 -46 12 -94q0 -33 -10.5 -92.5t-72.5 -148.5q-46 -52 -106 -89.5t-129 -63t-144.5 -40.5t-151.5 -23.5t-150.5 -11t-141.5 -2.5q-160 0 -300.5 15t-253.5 48t-195 86t-124 129
q-40 73 -40 168q0 4 0.5 57t54.5 182q13 36 28 65.5t27.5 51t22 35t12.5 17.5l158 -117q-22 -37 -44.5 -82.5t-37.5 -91.5t-18 -88v-13q0 -35 14 -61q27 -48 86.5 -85.5t149 -63t206 -40.5t257.5 -18q33 -1 64 -1q205 0 363 36t235 120q36 40 43 85q2 14 2 28q0 31 -13 71
t-47 89t-78.5 97.5t-95.5 95t-101.5 89t-96.5 80t-80 67.5l25 229l860 359z" />
    <glyph glyph-name="uni06AF" unicode="&#x6af;" horiz-adv-x="2138" arabic-form="isolated" 
d="M2136 1460l-762 -319q79 -67 158.5 -135.5t147.5 -140t118.5 -145.5t71.5 -152q12 -46 12 -94q0 -33 -10.5 -92.5t-72.5 -148.5q-46 -52 -106 -89.5t-129 -63t-144.5 -40.5t-151.5 -23.5t-150.5 -11t-141.5 -2.5q-160 0 -300.5 15t-253.5 48t-195 86t-124 129
q-40 73 -40 168q0 4 0.5 57t54.5 182q13 36 28 65.5t27.5 51t22 35t12.5 17.5l158 -117q-22 -37 -44.5 -82.5t-37.5 -91.5t-18 -88v-13q0 -35 14 -61q27 -48 86.5 -85.5t149 -63t206 -40.5t257.5 -18q33 -1 64 -1q205 0 363 36t235 120q36 40 43 85q2 14 2 28q0 31 -13 71
t-47 89t-78.5 97.5t-95.5 95t-101.5 89t-96.5 80t-80 67.5l25 229l860 359zM2001 1767l-804 -340l7 128l750 313z" />
    <glyph glyph-name="uni06BA" unicode="&#x6ba;" horiz-adv-x="1630" arabic-form="isolated" 
d="M116 -172q-9 63 -9 125q0 38 6 106.5t31.5 161.5t63 176.5t78.5 151.5l159 -117q-13 -18 -30 -51.5t-34.5 -78.5t-33.5 -98.5t-26.5 -111.5t-13.5 -118q-1 -17 -1 -33q0 -44 6 -85q4 -27 15.5 -62.5t34.5 -74t58 -75.5t84.5 -66.5t116 -48t151.5 -18.5q106 0 192 20
t151 58.5t109 94t66 125.5q27 86 29 173v12q0 81 -13 158t-36.5 146.5t-46.5 121t-40.5 81t-18.5 29.5l166 106q3 -5 25 -42.5t50.5 -100t57 -146t44.5 -180.5q12 -77 12 -159q0 -22 -3 -86.5t-39 -172.5q-38 -113 -106.5 -195t-159.5 -135.5t-201.5 -79.5t-233.5 -26
q-128 0 -239.5 31.5t-198.5 95t-144.5 160.5t-77.5 228z" />
    <glyph glyph-name="uni06BE" unicode="&#x6be;" horiz-adv-x="1520" arabic-form="isolated" 
d="M882 202q26 -3 49.5 -5t45.5 -2q81 0 142 32t92 90q22 43 22 89q0 9 -3.5 41t-40.5 84q-55 81 -199 171q9 -32 14 -69.5t5 -80.5q0 -57 -7.5 -104.5t-24.5 -93.5q-31 -84 -95 -152zM671 756q-23 0 -56.5 -15t-65.5 -52q-10 -12 -22 -29.5t-21.5 -41.5t-14.5 -54
q-3 -17 -3 -35q0 -16 2 -32q10 -76 54.5 -129.5t107.5 -90.5q20 10 35.5 20t29.5 21q51 42 73 97.5t22 136.5q0 71 -17.5 112t-40.5 61.5t-47 25.5t-36 5zM68 176q0 21 12 38.5t30.5 29.5t40.5 17q8 2 16 2q13 0 24 -4q39 -12 80 -21.5t74 -15.5t54 -8q16 -2 19 -2h1
q-11 11 -19.5 20t-14.5 19q-39 51 -61 105t-30 117q-4 31 -4 61q0 65 23 140t89 147q53 61 119 93q-45 19 -55 19l58 189q3 0 30 -8.5t72 -25t104 -40t125 -52.5q368 -167 496 -352q34 -49 53.5 -102t24.5 -106q1 -15 1 -31q0 -38 -9 -83.5t-35 -95.5q-57 -106 -162 -166
q-54 -32 -116 -47.5t-131 -15.5q-85 0 -169.5 16t-160.5 49q-50 -25 -108 -33q-40 -6 -83 -6q-19 0 -60 2.5t-107.5 15.5t-132.5 31q-46 15 -67 38.5t-21 65.5z" />
    <glyph glyph-name="uni06C0" unicode="&#x6c0;" horiz-adv-x="990" arabic-form="isolated" 
d="M485 0q-5 0 -24.5 0.5t-49 5t-65.5 14.5t-73 28q-96 45 -145 120.5t-49 178.5q0 181 163 377q33 39 63.5 70t53.5 52q-30 27 -48 42t-18 16l126 153q1 -2 21 -19t52.5 -47t73.5 -70.5t84 -88.5q123 -140 183 -261t60 -224t-45.5 -179t-133.5 -119q-32 -16 -65 -25.5
t-63 -15t-56.5 -7t-44.5 -1.5zM497 704q-29 -26 -67.5 -66t-72.5 -88t-57.5 -100t-23.5 -103q0 -15 2.5 -31t11 -31.5t24.5 -30.5t43 -27q19 -9 39 -14.5t37 -8.5t31 -4t21 -1q10 0 26 0.5t35 3.5t40 8t40 14q37 20 53.5 48.5t16.5 73.5q0 66 -51 159t-148 198zM284 1224v0
q121 0 210 32.5t127 90.5q40 65 9 135q-24 46 -68 62.5t-88 22.5q-76 8 -92 35q-21 59 42 129q33 36 83.5 54.5t109.5 -2.5l37 96q-167 57 -304 -76q-108 -122 -62 -243q26 -53 74 -71t95 -24q26 -4 49.5 -10t29.5 -16q9 -19 -2 -36q-18 -29 -82 -52t-168 -23v-104z" />
    <glyph glyph-name="uni06C1" unicode="&#x6c1;" horiz-adv-x="983" arabic-form="isolated" 
d="M485 0q-5 0 -24.5 0.5t-49 5t-65.5 14.5t-73 28q-96 45 -145 120.5t-49 178.5q0 181 163 377q33 39 63.5 70t53.5 52q-30 27 -48 42t-18 16l126 153q1 -2 21 -19t52.5 -47t73.5 -70.5t84 -88.5q123 -140 183 -261t60 -224t-45.5 -179t-133.5 -119q-32 -16 -65 -25.5
t-63 -15t-56.5 -7t-44.5 -1.5zM497 704q-29 -26 -67.5 -66t-72.5 -88t-57.5 -100t-23.5 -103q0 -15 2.5 -31t11 -31.5t24.5 -30.5t43 -27q19 -9 39 -14.5t37 -8.5t31 -4t21 -1q10 0 26 0.5t35 3.5t40 8t40 14q37 20 53.5 48.5t16.5 73.5q0 66 -51 159t-148 198z" />
    <glyph glyph-name="uni06C2.fina" unicode="&#x6c2;" horiz-adv-x="1347" 
d="M1367 196v-196h-29q-74 1 -133.5 25t-110.5 62t-95.5 86.5t-87.5 98.5q-33 38 -66 74.5t-67.5 65t-72 45.5t-79.5 17q-74 0 -127 -35t-92.5 -93t-68 -134t-52.5 -158l-190 50q28 112 72 214.5t108 180.5t150 124.5t200 46.5q72 0 133 -24t113.5 -62t98.5 -86.5t88 -97.5
q32 -37 65.5 -73.5t69.5 -65.5t74 -47t79 -18h20zM483 1137q-33 7 -53 10t-39 3q-15 0 -30.5 -1.5t-31.5 -8.5q-23 -10 -38.5 -27t-23.5 -38q-7 -19 -7 -38v-15t10 -32q11 -20 30 -37t41.5 -27t47.5 -11h4q22 0 42 11l139 75l59 -78l-242 -142l-227 -126l-48 87l179 100
q-42 17 -73 49t-48 71q-14 36 -14 74q0 31 9.5 60.5t27 55t42 45.5t54.5 32q45 19 98 19q23 0 44 -3t38 -7l38 -9z" />
    <glyph glyph-name="uni06C3.fina" unicode="&#x6c3;" horiz-adv-x="1347" 
d="M1367 196v-196h-29q-74 1 -133.5 25t-110.5 62t-95.5 86.5t-87.5 98.5q-33 38 -66 74.5t-67.5 65t-72 45.5t-79.5 17q-74 0 -127 -35t-92.5 -93t-68 -134t-52.5 -158l-190 50q28 112 72 214.5t108 180.5t150 124.5t200 46.5q72 0 133 -24t113.5 -62t98.5 -86.5t88 -97.5
q32 -37 65.5 -73.5t69.5 -65.5t74 -47t79 -18h20zM551 968l-162 -162l-164 163l162 163zM961 967l-162 -163l-164 164l162 162z" />
    <glyph glyph-name="uni06CC" unicode="&#x6cc;" horiz-adv-x="1793" arabic-form="isolated" 
d="M1391 832q54 11 105 11q14 0 52 -2.5t86 -13.5t77.5 -23t32.5 -13l-87 -183l-18 8q-19 7 -50 13.5t-71 9.5h-15q-34 0 -70 -7q-42 -4 -87 -26.5t-87.5 -57t-79 -79t-60 -92.5t-30.5 -97q-3 -17 -3 -33q0 -31 10 -59q13 -36 45.5 -58.5t76.5 -37.5t95.5 -26t102 -25.5
t95.5 -36t76 -56.5t45 -87q7 -26 7 -59q0 -32 -7 -71q-18 -99 -87.5 -180.5t-186.5 -139.5q-111 -57 -249.5 -85.5t-303.5 -28.5q-190 0 -334.5 54t-238.5 159q-82 94 -115 218q-22 80 -22 172q0 48 6 99q8 65 22 134.5t30.5 135.5t34 125.5t32 105.5t24 74t11.5 32l191 -67
q-45 -141 -84 -279t-58 -285q-5 -36 -5 -78v-8q0 -38 8 -79.5t26.5 -84t51.5 -79.5q63 -72 169 -108t251 -36q142 0 256 22.5t194.5 60t125.5 85t50 98.5v5q0 29 -32.5 46.5t-86.5 32t-119 30.5t-124.5 44.5t-105 74.5t-60.5 121q-10 51 -10 101q0 29 5.5 82.5t33.5 126.5
t74 138.5t105.5 118t130.5 89.5t149 54z" />
    <glyph glyph-name="uni06D2" unicode="&#x6d2;" horiz-adv-x="1298" arabic-form="isolated" 
d="M768 195v-194h-315q-45 0 -81 -16.5t-60 -41t-33 -53.5q-4 -14 -4 -28q0 -13 6.5 -31.5t36.5 -35t84 -16.5h896v-194h-892q-93 0 -158 26t-104 69t-53 98q-9 35 -9 71q0 20 5 59t34 94t76.5 98t112 69t143.5 26h315z" />
    <glyph glyph-name="uni06D3" unicode="&#x6d3;" horiz-adv-x="1298" arabic-form="isolated" 
d="M768 195v-194h-315q-45 0 -81 -16.5t-60 -41t-33 -53.5q-4 -14 -4 -28q0 -13 6.5 -31.5t36.5 -35t84 -16.5h896v-194h-892q-93 0 -158 26t-104 69t-53 98q-9 35 -9 71q0 20 5 59t34 94t76.5 98t112 69t143.5 26h315zM478 746q-33 7 -53 10t-39 3q-15 0 -30.5 -1.5
t-31.5 -8.5q-23 -10 -38.5 -27t-23.5 -38q-7 -19 -7 -38v-15t10 -32q11 -20 30 -37t41.5 -27t47.5 -11h4q22 0 42 11l139 75l59 -78l-242 -142l-227 -126l-48 87l179 100q-42 17 -73 49t-48 71q-14 36 -14 74q0 31 9.5 60.5t27 55t42 45.5t54.5 32q45 19 98 19q23 0 44 -3
t38 -7l38 -9z" />
    <glyph glyph-name="uni0671.fina" unicode="&#x671;" horiz-adv-x="640" arabic-form="final" 
d="M660 0h-20q-119 0 -197 28t-123.5 80t-64 125.5t-18.5 165.5q0 183 2 371v37q0 168 -8 330q-4 78 -11 150.5t-16 120.5l196 36q9 -51 16 -125t11 -151q12 -188 12 -370q0 -14 -0.5 -119t-2.5 -301q0 -60 14.5 -95.5t41 -54.5t63 -25.5t81.5 -6.5h24v-196zM546 1699
q14 11 19 21.5t7 20.5q1 6 1 12q0 9 -4 19t-14 18.5t-24 13.5q-11 3 -22 3h-6q-38 0 -71 -19.5t-57 -45.5q-31 -32 -55 -79q34 -3 65 -3q54 0 95 9t66 30zM651 1795q8 -21 8 -42q0 -3 -1 -16t-10 -34.5t-23.5 -40.5t-31.5 -32q-46 -33 -100 -43.5t-118 -12.5h-16
q-48 0 -81 10.5t-56 25t-39 26.5q-16 11 -36 11h-3q-24 -1 -48 -14t-55 -33l-34 81q42 26 82.5 38t61.5 12q51 0 88 -35q16 29 33 53.5t34 44.5q47 54 106 80q42 19 90 19q54 0 91 -22.5t56 -70.5z" />
    <glyph glyph-name="uni067E.fina" unicode="&#x67e;" horiz-adv-x="2316" arabic-form="final" 
d="M1922 164q-40 48 -62 109q-264 -276 -833 -276q-304 2 -503.5 72.5t-289.5 222.5q-29 49 -44.5 101t-19.5 104q-2 26 -2 51t3 62.5t15 82.5q25 95 48.5 150.5t28.5 62.5l173 -95q0 -1 -9 -20t-20 -50t-21.5 -72t-12.5 -86q-1 -12 -1 -25q0 -33 7 -73.5t32 -82.5
q60 -103 214.5 -154t401.5 -52q221 0 376 38.5t258 122.5q46 36 79 79t56.5 89t40 93t29.5 92l190 -52q-5 -18 -11.5 -44.5t-11.5 -54t-8 -53.5q-3 -22 -3 -38v-8q2 -43 13 -90t42 -84q70 -89 233 -90h25v-196h-28q-260 3 -385 164zM1221 -195l162 -162l-164 -164l-162 162z
M784 -196l162 -163l-164 -164l-162 163zM1006 -512l148 -148l-149 -149l-148 148z" />
    <glyph glyph-name="uni067E.init" unicode="&#x67e;" horiz-adv-x="843" arabic-form="initial" 
d="M-20 196h193q58 0 113 2.5t102 14.5t83 35.5t56 65.5q10 21 15 53q3 21 3 45q0 13 -2 39.5t-13 73t-32 97.5l-87 214l178 88q0 -1 9 -20.5t23.5 -52.5t31.5 -76.5t32 -92.5q45 -145 52 -256q1 -16 1 -32q0 -91 -30 -160q-30 -68 -79.5 -113t-113.5 -72t-140.5 -38
t-158.5 -11h-236v196zM599 -195l162 -162l-164 -164l-162 162zM162 -196l162 -163l-164 -164l-162 163zM384 -512l148 -148l-149 -149l-148 148z" />
    <glyph glyph-name="uni067E.medi" unicode="&#x67e;" horiz-adv-x="852" arabic-form="medial" 
d="M872 196v-196h-20q-101 0 -168 34.5t-110 89.5q-32 -31 -70 -54.5t-90 -39t-121.5 -23t-163.5 -7.5h-149v196h149q95 0 162.5 15t110 45t62.5 75t20 105q0 57 -8.5 116t-30.5 135l188 53q10 -35 17 -67.5t12 -68.5t9.5 -78t8.5 -95q3 -37 11 -78t26.5 -76t51 -58
t83.5 -23h20zM599 -195l162 -162l-164 -164l-162 162zM162 -196l162 -163l-164 -164l-162 163zM384 -512l148 -148l-149 -149l-148 148z" />
    <glyph glyph-name="uni0679.fina" unicode="&#x679;" horiz-adv-x="2316" arabic-form="final" 
d="M1922 164q-40 48 -62 109q-264 -276 -833 -276q-304 2 -503.5 72.5t-289.5 222.5q-29 49 -44.5 101t-19.5 104q-2 26 -2 51t3 62.5t15 82.5q25 95 48.5 150.5t28.5 62.5l173 -95q0 -1 -9 -20t-20 -50t-21.5 -72t-12.5 -86q-1 -12 -1 -25q0 -33 7 -73.5t32 -82.5
q60 -103 214.5 -154t401.5 -52q221 0 376 38.5t258 122.5q46 36 79 79t56.5 89t40 93t29.5 92l190 -52q-5 -18 -11.5 -44.5t-11.5 -54t-8 -53.5q-3 -22 -3 -38v-8q2 -43 13 -90t42 -84q70 -89 233 -90h25v-196h-28q-260 3 -385 164zM1115 813q-55 2 -99.5 7t-83.5 12.5
t-74.5 18t-71.5 24.5l32 79q29 -11 56 -19.5t54 -15.5l56 76q6 37 8.5 66t3 57.5t-1.5 60.5t-5 75q-3 34 -5.5 61.5t-5 52.5t-5.5 49.5t-7 52.5l84 16l3 -24q3 -24 6.5 -57.5t7.5 -71t6 -64.5q3 -36 4 -52t1.5 -28.5t1 -31t1.5 -58.5q103 97 197 112q15 2 30 2q18 0 44.5 -5
t55.5 -22t48.5 -45t21.5 -65q1 -7 1 -13q0 -17 -4.5 -36.5t-13.5 -40t-21 -38t-24 -29.5q-37 -36 -76.5 -57t-78.5 -32t-76.5 -14t-69.5 -3zM1022 903q21 -3 40 -3h2q31 -1 67 -1t74 7t76.5 24t75.5 50q27 24 34 52q2 11 2 20q0 17 -8 36t-32 32q-17 9 -39 9q-11 0 -22 -2
q-89 -14 -205 -143z" />
    <glyph glyph-name="uni0679.init" unicode="&#x679;" horiz-adv-x="843" arabic-form="initial" 
d="M-20 196h193q58 0 113 2.5t102 14.5t83 35.5t56 65.5q10 21 15 53q3 21 3 45q0 13 -2 39.5t-13 73t-32 97.5l-87 214l178 88q0 -1 9 -20.5t23.5 -52.5t31.5 -76.5t32 -92.5q45 -145 52 -256q1 -16 1 -32q0 -91 -30 -160q-30 -68 -79.5 -113t-113.5 -72t-140.5 -38
t-158.5 -11h-236v196zM410 1105q-55 2 -99.5 7t-83.5 12.5t-74.5 18t-71.5 24.5l32 79q29 -11 56 -19.5t54 -15.5l56 76q6 37 8.5 66t3 57.5t-1.5 60.5t-5 75q-3 34 -5.5 61.5t-5 52.5t-5.5 49.5t-7 52.5l84 16l3 -24q3 -24 6.5 -57.5t7.5 -71t6 -64.5q3 -36 4 -52
t1.5 -28.5t1 -31t1.5 -58.5q103 97 197 112q15 2 30 2q18 0 44.5 -5t55.5 -22t48.5 -45t21.5 -65q1 -7 1 -13q0 -17 -4.5 -36.5t-13.5 -40t-21 -38t-24 -29.5q-37 -36 -76.5 -57t-78.5 -32t-76.5 -14t-69.5 -3zM317 1195q21 -3 40 -3h2q31 -1 67 -1t74 7t76.5 24t75.5 50
q27 24 34 52q2 11 2 20q0 17 -8 36t-32 32q-17 9 -39 9q-11 0 -22 -2q-89 -14 -205 -143z" />
    <glyph glyph-name="uni0679.medi" unicode="&#x679;" horiz-adv-x="852" arabic-form="medial" 
d="M872 196v-196h-20q-101 0 -168 34.5t-110 89.5q-32 -31 -70 -54.5t-90 -39t-121.5 -23t-163.5 -7.5h-149v196h149q95 0 162.5 15t110 45t62.5 75t20 105q0 57 -8.5 116t-30.5 135l188 53q10 -35 17 -67.5t12 -68.5t9.5 -78t8.5 -95q3 -37 11 -78t26.5 -76t51 -58
t83.5 -23h20zM410 948q-55 2 -99.5 7t-83.5 12.5t-74.5 18t-71.5 24.5l32 79q29 -11 56 -19.5t54 -15.5l56 76q6 37 8.5 66t3 57.5t-1.5 60.5t-5 75q-3 34 -5.5 61.5t-5 52.5t-5.5 49.5t-7 52.5l84 16l3 -24q3 -24 6.5 -57.5t7.5 -71t6 -64.5q3 -36 4 -52t1.5 -28.5t1 -31
t1.5 -58.5q103 97 197 112q15 2 30 2q18 0 44.5 -5t55.5 -22t48.5 -45t21.5 -65q1 -7 1 -13q0 -17 -4.5 -36.5t-13.5 -40t-21 -38t-24 -29.5q-37 -36 -76.5 -57t-78.5 -32t-76.5 -14t-69.5 -3zM317 1038q21 -3 40 -3h2q31 -1 67 -1t74 7t76.5 24t75.5 50q27 24 34 52
q2 11 2 20q0 17 -8 36t-32 32q-17 9 -39 9q-11 0 -22 -2q-89 -14 -205 -143z" />
    <glyph glyph-name="veh.isol" unicode="&#x6a4;" horiz-adv-x="1985" arabic-form="isolated" 
d="M1714 1013q46 -50 85 -124.5t61.5 -162.5t24.5 -184v-7q0 -92 -27 -183q-24 -80 -75 -137t-120.5 -96t-154.5 -62.5t-177.5 -35.5t-188 -16t-187.5 -4q-606 0 -784 304q-40 67 -54 137q-12 60 -12 118q0 9 1 46t14.5 95t29.5 103t29 72.5t14 31.5l174 -95l-9 -19
q-9 -19 -20.5 -50.5t-22 -73t-12.5 -86.5q-1 -12 -1 -25q0 -33 7 -73t33 -82q30 -50 79.5 -88.5t121 -65t166.5 -41.5t217 -18q48 -1 92 -1q87 0 174 6.5t162 21.5t125.5 34.5t85.5 38.5q33 17 53.5 33.5t32.5 30.5h-53.5t-39.5 0.5t-30.5 1t-26.5 1.5q-100 9 -173 40
t-121 91q-15 18 -29 43.5t-22.5 59t-10.5 75.5v17q0 34 6 74q11 64 37 130.5t66.5 120.5t95.5 88.5t124 34.5q133 0 240 -119zM1514 555q52 -3 95 -3q44 0 78 3q-6 33 -14 72t-19 79t-26.5 78t-37.5 69t-50.5 52.5t-65.5 29.5q-3 1 -5 1q-14 0 -32.5 -14t-38 -41.5t-36 -63
t-23.5 -72.5q-4 -22 -4 -42q0 -15 3 -40.5t24 -51.5q18 -24 58 -38.5t94 -17.5zM1536 1455l162 162l164 -164l-162 -162zM1097 1456l162 163l164 -164l-162 -163zM1338 1757l148 148l149 -149l-148 -148z" />
    <glyph glyph-name="veh.fina" unicode="&#x6a4;" horiz-adv-x="2106" arabic-form="final" 
d="M1857 220q61 -11 127.5 -17.5t141.5 -6.5v-196q-65 0 -130 4.5t-127.5 13.5t-121.5 22.5t-110 31.5l-59 -20q-50 -18 -118.5 -32t-149.5 -23t-170 -14t-179 -5q-308 1 -508 76t-291 229q-40 67 -54 137q-12 60 -12 118q0 9 0.5 45.5t14 95.5t29.5 103.5t29 72t15 31.5
l174 -95q0 -1 -9 -19.5t-20.5 -50t-22 -72.5t-12.5 -86q-1 -12 -1 -25q0 -33 6.5 -73.5t32.5 -82.5q30 -50 77.5 -88t117 -63.5t163 -39.5t215.5 -17q56 -2 104 -2q32 0 82 1t106 5.5t101 11.5t84 15q-137 113 -137 264q0 94 28.5 176.5t82.5 151.5q54 67 122.5 104
t144.5 37q69 0 128 -24t105 -75q18 -19 37 -46t34 -64t25 -85t10 -108q0 -45 -6 -89.5t-18.5 -85.5t-32.5 -77t-48 -64zM1629 286q43 25 69.5 54t40.5 61t19 66t5 69q0 72 -17.5 112.5t-40.5 60.5t-46.5 25t-35.5 5q-28 0 -59.5 -19t-58 -54t-44 -85t-17.5 -112
q0 -23 13.5 -50t38 -52.5t58.5 -47t75 -33.5zM1671 1271l162 162l164 -164l-162 -162zM1232 1272l162 163l164 -164l-162 -163zM1473 1573l148 148l149 -149l-148 -148z" />
    <glyph glyph-name="veh.init" unicode="&#x6a4;" horiz-adv-x="943" arabic-form="initial" 
d="M428 927q-14 0 -33 -13.5t-38 -40.5t-35.5 -66t-25.5 -90q-3 -19 -3 -36q0 -22 6.5 -46t29 -44t58 -30t80.5 -13q51 -2 96 -2q44 0 77 2q-7 97 -37.5 183t-81.5 143q-16 18 -40.5 35.5t-52.5 17.5zM-20 196h20q110 0 203.5 10.5t167 27t124.5 36.5t75 40q13 11 21 20
l16 18h-101q-54 0 -105 8.5t-96 25.5t-82 42.5t-63 58.5q-14 18 -28 43.5t-23 58.5t-11 75v17q0 34 6 75q28 152 107 254q45 60 101 89.5t116 29.5q132 0 240 -117q46 -51 82 -118.5t58.5 -144t30.5 -157.5q3 -35 3 -69q0 -47 -6 -93q-12 -91 -50 -158t-96.5 -114
t-134 -76.5t-163 -46.5t-183.5 -23.5t-195 -7.5h-34v196zM477 1461l162 162l164 -164l-162 -162zM38 1462l162 163l164 -164l-162 -163zM279 1763l148 148l149 -149l-148 -148z" />
    <glyph glyph-name="veh.medi" unicode="&#x6a4;" horiz-adv-x="1001" arabic-form="medial" 
d="M501 741q-27 0 -58.5 -19.5t-58.5 -55t-44.5 -86t-17.5 -111.5q0 -24 13.5 -51t38 -52.5t59.5 -47t77 -32.5q58 27 89.5 71t41.5 95q6 28 6 56q0 23 -6 60t-26.5 78.5t-50.5 68t-63 26.5zM-20 196h20q75 0 143 5t113 10q-130 114 -130 258q0 94 28.5 177t82.5 152
t124 106q64 34 131 34h11q89 -4 156 -42t111.5 -98t65.5 -135q18 -66 18 -135q0 -9 -2 -53.5t-30.5 -120t-82.5 -134.5q27 -6 59.5 -10t67 -7t69.5 -5t67 -2h19v-196h-20q-125 0 -247 16.5t-237 54.5q-94 -36 -229 -53.5t-288 -17.5h-20v196zM553 1271l162 162l164 -164
l-162 -162zM114 1272l162 163l164 -164l-162 -163zM355 1573l148 148l149 -149l-148 -148z" />
    <glyph glyph-name="uni0686.fina" unicode="&#x686;" horiz-adv-x="1702" arabic-form="final" 
d="M912 -791q-109 0 -209.5 24t-188 68.5t-158 107t-118.5 139t-70 165.5q-17 64 -17 133q0 26 3 54q9 96 46 185.5t96 168t138 142t172 106.5q124 57 254 89t257 47l-108 52q-105 53 -192 91.5t-145 46.5q-19 3 -38 3q-117 0 -213 -102q-33 -36 -54 -70.5t-34 -61.5
l-184 76l11 22t24.5 44t38.5 58.5t54 65.5q88 97 194 137q76 29 159 29q33 0 68 -5q84 -11 180.5 -53.5t217.5 -102.5q109 -54 232 -111t268 -105l-38 -192q-2 0 -18.5 0.5t-46 1t-70 -0.5t-89.5 -4q0 -81 25 -131.5t72.5 -79.5t115.5 -39.5t155 -10.5h20v-196h-20
q-133 0 -238 24.5t-178 77.5t-112 136.5t-39 200.5q-112 -14 -226.5 -41t-220.5 -75q-23 -11 -56 -29.5t-69 -45t-72 -61.5t-65.5 -79t-50 -96.5t-25.5 -114.5q-1 -16 -1 -32q0 -77 26 -149t79 -132.5t127 -101.5t159.5 -63t177.5 -23h17q82 0 167.5 18.5t167.5 59
t148 103.5l129 -152q-71 -63 -149 -104.5t-159.5 -66t-164 -35t-162.5 -10.5zM1108 113l162 -162l-164 -164l-162 162zM671 112l162 -163l-164 -164l-162 163zM893 -204l148 -148l-149 -149l-148 148z" />
    <glyph glyph-name="uni0686.init" unicode="&#x686;" horiz-adv-x="1587" arabic-form="initial" 
d="M-20 196h217q133 0 266 25.5t262 67.5t252 96t237 111q-69 24 -132 52t-124 57q-47 22 -91.5 42.5t-86 36.5t-78.5 25.5t-68 9.5q-41 0 -78 -18t-68.5 -45.5t-56.5 -59t-43 -59t-27.5 -46t-9.5 -19.5l-180 81q1 2 8.5 17.5t22 39.5t35 55t47.5 63q78 94 165.5 141
t184.5 47q48 0 97.5 -11t100.5 -29.5t104 -42.5t107 -49q59 -28 119.5 -55t121.5 -48.5t122 -34.5t123 -13l38 -190q-70 -29 -139 -62.5t-144 -70.5q-110 -55 -236.5 -110t-265 -99.5t-286.5 -72.5t-299 -28h-217v196zM1023 -195l162 -162l-164 -164l-162 162zM586 -196
l162 -163l-164 -164l-162 163zM808 -512l148 -148l-149 -149l-148 148z" />
    <glyph glyph-name="uni0686.medi" unicode="&#x686;" horiz-adv-x="1667" arabic-form="medial" 
d="M-20 196h144q150 0 285 25.5t259.5 67.5t241.5 96t231 111q-69 24 -132 52t-124 57q-47 22 -91.5 42.5t-86 36.5t-78.5 25.5t-68 9.5q-41 0 -78 -18t-68.5 -45.5t-56.5 -59t-43 -59t-27.5 -46t-9.5 -19.5l-180 81q1 2 8.5 17.5t22 39.5t35 55t47.5 63q78 94 165.5 141
t184.5 47q48 0 97.5 -11t100.5 -29.5t104 -42.5t107 -49q59 -28 119.5 -55t121.5 -48.5t122 -34.5t123 -13l38 -190q-46 -20 -91 -40t-91 -43q11 -38 36.5 -64.5t59 -45t71 -29t73.5 -16.5t66 -7.5t48 -1.5h21v-196h-21q-99 0 -185 18.5t-154.5 53.5t-118 85.5t-74.5 114.5
q-103 -51 -215 -99.5t-236.5 -87t-263.5 -62t-295 -23.5h-144v196zM955 -193l162 -162l-164 -164l-162 162zM518 -194l162 -163l-164 -164l-162 163zM740 -510l148 -148l-149 -149l-148 148z" />
    <glyph glyph-name="uni0688.fina" unicode="&#x688;" horiz-adv-x="1262" arabic-form="final" 
d="M1282 196v-196h-20q-65 0 -115.5 10.5t-89 28.5t-67.5 42.5t-50 51.5q-42 -33 -84.5 -58t-91 -41.5t-105.5 -25t-128 -8.5q-118 0 -218.5 48.5t-185.5 136.5l113 159q60 -56 121 -89t121 -46q40 -9 80 -9q19 0 56.5 3.5t91.5 24.5q51 20 83.5 43.5t49.5 40.5l-316 760
l182 76q48 -117 87.5 -213t75 -182t70 -169.5t73.5 -174.5q20 -48 38.5 -87.5t44.5 -67t65 -43t99 -15.5h20zM684 1319q-55 2 -99.5 7t-83.5 12.5t-74.5 18t-71.5 24.5l32 79q29 -11 56 -19.5t54 -15.5l56 76q6 37 8.5 66t3 57.5t-1.5 60.5t-5 75q-3 34 -5.5 61.5t-5 52.5
t-5.5 49.5t-7 52.5l84 16l3 -24q3 -24 6.5 -57.5t7.5 -71t6 -64.5q3 -36 4 -52t1.5 -28.5t1 -31t1.5 -58.5q103 97 197 112q15 2 30 2q18 0 44.5 -5t55.5 -22t48.5 -45t21.5 -65q1 -7 1 -13q0 -17 -4.5 -36.5t-13.5 -40t-21 -38t-24 -29.5q-37 -36 -76.5 -57t-78.5 -32
t-76.5 -14t-69.5 -3zM591 1409q21 -3 40 -3h2q31 -1 67 -1t74 7t76.5 24t75.5 50q27 24 34 52q2 11 2 20q0 17 -8 36t-32 32q-17 9 -39 9q-11 0 -22 -2q-89 -14 -205 -143z" />
    <glyph glyph-name="uni0698.fina" unicode="&#x698;" horiz-adv-x="813" arabic-form="final" 
d="M625 69q0 -131 -56 -250t-148.5 -221.5t-211.5 -187.5t-245 -148l-86 177q72 37 143 81.5t134 95.5t116 107.5t89.5 118.5t54.5 129q13 48 13 98q0 20 -2 37q-7 57 -21.5 122.5t-31.5 128.5t-34 118.5t-29 92.5l188 58q38 -116 74 -197.5t74 -133t79.5 -75.5t91.5 -24h16
v-196h-17q-14 0 -36 1t-48.5 8t-54 22t-52.5 42v-4zM448 989l162 162l164 -164l-162 -162zM9 990l162 163l164 -164l-162 -163zM250 1291l148 148l149 -149l-148 -148z" />
    <glyph glyph-name="uni0691.fina" unicode="&#x691;" horiz-adv-x="813" arabic-form="final" 
d="M625 69q0 -131 -56 -250t-148.5 -221.5t-211.5 -187.5t-245 -148l-86 177q72 37 143 81.5t134 95.5t116 107.5t89.5 118.5t54.5 129q13 48 13 98q0 20 -2 37q-7 57 -21.5 122.5t-31.5 128.5t-34 118.5t-29 92.5l188 58q38 -116 74 -197.5t74 -133t79.5 -75.5t91.5 -24h16
v-196h-17q-14 0 -36 1t-48.5 8t-54 22t-52.5 42v-4zM405 827q-55 2 -99.5 7t-83.5 12.5t-74.5 18t-71.5 24.5l32 79q29 -11 56 -19.5t54 -15.5l56 76q6 37 8.5 66t3 57.5t-1.5 60.5t-5 75q-3 34 -5.5 61.5t-5 52.5t-5.5 49.5t-7 52.5l84 16l3 -24q3 -24 6.5 -57.5t7.5 -71
t6 -64.5q3 -36 4 -52t1.5 -28.5t1 -31t1.5 -58.5q103 97 197 112q15 2 30 2q18 0 44.5 -5t55.5 -22t48.5 -45t21.5 -65q1 -7 1 -13q0 -17 -4.5 -36.5t-13.5 -40t-21 -38t-24 -29.5q-37 -36 -76.5 -57t-78.5 -32t-76.5 -14t-69.5 -3zM312 917q21 -3 40 -3h2q31 -1 67 -1t74 7
t76.5 24t75.5 50q27 24 34 52q2 11 2 20q0 17 -8 36t-32 32q-17 9 -39 9q-11 0 -22 -2q-89 -14 -205 -143z" />
    <glyph glyph-name="uni06A9.fina" unicode="&#x6a9;" horiz-adv-x="2320" arabic-form="final" 
d="M2340 196v-196h-20q-165 1 -302 63.5t-226 186.5q-53 -79 -124 -128t-170 -76t-231.5 -36.5t-309.5 -9.5q-94 0 -190 7.5t-187.5 24.5t-175 44t-151.5 66.5t-117.5 91.5t-72.5 119q-18 51 -18 112q0 19 4.5 70t48.5 151q15 36 30 65.5t27.5 51t21 35.5t11.5 18l158 -118
q-25 -35 -48.5 -79t-38.5 -90t-17 -89v-9q0 -39 15 -69q16 -33 59 -62t103 -52t131 -41t144.5 -29.5t143.5 -16.5q44 -3 83 -3q23 0 45 1q204 9 332 24.5t195 41.5q88 33 129.5 78t47.5 98q1 11 1 22q0 42 -21 93.5t-63 109.5t-97.5 115t-113 108.5t-111.5 94.5t-94 74
l27 221l897 386l75 -182l-792 -334q84 -59 159.5 -126.5t137 -140t108 -149t72.5 -152.5q16 -48 35.5 -97t49 -95t71.5 -86t103 -69q40 -19 89 -28t109 -10h28z" />
    <glyph glyph-name="uni06A9.init" unicode="&#x6a9;" horiz-adv-x="1023" arabic-form="initial" 
d="M-20 196h125q60 0 125 1.5t124 12t108 33t77 64.5q33 51 39 110q1 13 1 26q0 47 -14 101q-11 41 -54.5 104.5t-107.5 136t-143 148.5t-161 142l23 205l822 352l77 -182l-716 -301q49 -42 107 -94t115 -115q76 -84 125 -160.5t76 -145.5t36 -130q6 -40 6 -76
q0 -21 -3.5 -57.5t-19 -82.5t-36.5 -84q-89 -158 -301 -197q-35 -7 -87 -7h-343v196z" />
    <glyph glyph-name="uni06A9.medi" unicode="&#x6a9;" horiz-adv-x="1188" arabic-form="medial" 
d="M-20 196h349q40 0 80.5 16t73 43t54 61.5t24.5 70.5q1 12 1 24q0 46 -17.5 102t-53.5 120t-84 126.5t-100.5 119t-105.5 104.5t-98 83l26 221l884 381l77 -182l-793 -333q75 -61 133 -122.5t104 -123.5t82.5 -124t70 -124t66.5 -125t71 -127q29 -48 61.5 -86.5
t71.5 -65.5t85.5 -42.5t102.5 -16.5h63v-196h-29q-72 0 -126.5 9t-106.5 26q-72 26 -131.5 76t-104.5 108q-33 -63 -86 -112q-33 -29 -69.5 -49t-75.5 -32t-80 -18t-83 -8h-336v196z" />
    <glyph glyph-name="uni06AF.fina" unicode="&#x6af;" horiz-adv-x="2320" arabic-form="final" 
d="M2340 196v-196h-20q-165 1 -302 63.5t-226 186.5q-53 -79 -124 -128t-170 -76t-231.5 -36.5t-309.5 -9.5q-94 0 -190 7.5t-187.5 24.5t-175 44t-151.5 66.5t-117.5 91.5t-72.5 119q-18 51 -18 112q0 19 4.5 70t48.5 151q15 36 30 65.5t27.5 51t21 35.5t11.5 18l158 -118
q-25 -35 -48.5 -79t-38.5 -90t-17 -89v-9q0 -39 15 -69q16 -33 59 -62t103 -52t131 -41t144.5 -29.5t143.5 -16.5q44 -3 83 -3q23 0 45 1q204 9 332 24.5t195 41.5q88 33 129.5 78t47.5 98q1 11 1 22q0 42 -21 93.5t-63 109.5t-97.5 115t-113 108.5t-111.5 94.5t-94 74
l27 221l897 386l75 -182l-792 -334q84 -59 159.5 -126.5t137 -140t108 -149t72.5 -152.5q16 -48 35.5 -97t49 -95t71.5 -86t103 -69q40 -19 89 -28t109 -10h28zM2010 1767l-804 -340l7 128l750 313z" />
    <glyph glyph-name="uni06AF.init" unicode="&#x6af;" horiz-adv-x="1023" arabic-form="initial" 
d="M-20 196h125q60 0 125 1.5t124 12t108 33t77 64.5q33 51 39 110q1 13 1 26q0 47 -14 101q-11 41 -54.5 104.5t-107.5 136t-143 148.5t-161 142l23 205l822 352l77 -182l-716 -301q49 -42 107 -94t115 -115q76 -84 125 -160.5t76 -145.5t36 -130q6 -40 6 -76
q0 -21 -3.5 -57.5t-19 -82.5t-36.5 -84q-89 -158 -301 -197q-35 -7 -87 -7h-343v196zM910 1767l-804 -340l7 128l750 313z" />
    <glyph glyph-name="uni06AF.medi" unicode="&#x6af;" horiz-adv-x="1188" arabic-form="medial" 
d="M-20 196h349q40 0 80.5 16t73 43t54 61.5t24.5 70.5q1 12 1 24q0 46 -17.5 102t-53.5 120t-84 126.5t-100.5 119t-105.5 104.5t-98 83l26 221l884 381l77 -182l-793 -333q75 -61 133 -122.5t104 -123.5t82.5 -124t70 -124t66.5 -125t71 -127q29 -48 61.5 -86.5
t71.5 -65.5t85.5 -42.5t102.5 -16.5h63v-196h-29q-72 0 -126.5 9t-106.5 26q-72 26 -131.5 76t-104.5 108q-33 -63 -86 -112q-33 -29 -69.5 -49t-75.5 -32t-80 -18t-83 -8h-336v196zM945 1767l-804 -340l7 128l750 313z" />
    <glyph glyph-name="uni06BA.fina" unicode="&#x6ba;" horiz-adv-x="1709" arabic-form="final" 
d="M67 -171q-9 63 -9 125q0 38 6 106.5t31.5 161.5t63 176.5t78.5 151.5l159 -117q-13 -18 -30 -51.5t-34.5 -78.5t-33.5 -98.5t-26.5 -111.5t-13.5 -118q-1 -17 -1 -33q0 -44 6 -85q4 -26 15.5 -62t34.5 -74.5t58 -75.5t84.5 -66.5t116 -48t151.5 -18.5q106 0 192 20
t151 58.5t109 94t66 125.5q27 86 29 173v12q0 81 -13 158t-36.5 146.5t-46.5 121t-40.5 81t-18.5 29.5l166 106q3 -5 24 -40.5t49 -95.5q55 -104 104 -165t93 -92t83.5 -39.5t74.5 -8.5h22v-196h-22q-135 0 -241 61q1 -23 1 -46q0 -53 -7.5 -119t-33.5 -146
q-38 -113 -106.5 -195t-159.5 -135.5t-201.5 -79.5t-233.5 -26q-128 0 -239.5 31.5t-198.5 95t-144.5 160.5t-77.5 228z" />
    <glyph glyph-name="uni06C0.fina" unicode="&#x6c0;" horiz-adv-x="1090" arabic-form="final" 
d="M1109 196v-196h-20q-38 0 -90.5 6.5t-104.5 30.5q-79 37 -132 122q-63 -10 -116.5 -14.5t-102.5 -4.5q-258 0 -359 125q-28 33 -39.5 72t-12.5 76v18q0 27 5 55t14 49q27 56 64.5 103t80 84.5t88 67t88 52t80.5 38t66 25.5q-8 76 -11.5 111.5t-3.5 36.5l196 41v1
q1 -8 4 -36.5t7 -67t8.5 -82t8.5 -81.5t7 -66t4 -35q16 -129 29 -211t23 -131t16 -69.5t9 -26.5q24 -54 64 -73.5t110 -19.5h20zM641 702q-24 -10 -57 -24.5t-68.5 -33t-70 -40.5t-62 -48t-44.5 -55.5t-17 -61.5t20.5 -53t53 -32.5t73.5 -15.5q34 -4 69 -4q7 0 31 0.5
t61.5 4.5t63.5 9q-12 58 -24.5 142t-28.5 212zM434 1229v0q121 0 210 32.5t127 90.5q40 65 9 135q-24 46 -68 62.5t-88 22.5q-76 8 -92 35q-21 59 42 129q33 36 83.5 54.5t109.5 -2.5l37 96q-167 57 -304 -76q-108 -122 -62 -243q26 -53 74 -71t95 -24q26 -4 49.5 -10
t29.5 -16q9 -19 -2 -36q-18 -29 -82 -52t-168 -23v-104z" />
    <glyph glyph-name="uni06C1.fina" unicode="&#x6c1;" horiz-adv-x="1347" arabic-form="final" 
d="M1367 196v-196h-29q-74 1 -133.5 25t-110.5 62t-95.5 86.5t-87.5 98.5q-33 38 -66 74.5t-67.5 65t-72 45.5t-79.5 17q-74 0 -127 -35t-92.5 -93t-68 -134t-52.5 -158l-190 50q28 112 72 214.5t108 180.5t150 124.5t200 46.5q72 0 133 -24t113.5 -62t98.5 -86.5t88 -97.5
q32 -37 65.5 -73.5t69.5 -65.5t74 -47t79 -18h20z" />
    <glyph glyph-name="uni06C1.init" unicode="&#x6c1;" horiz-adv-x="728" arabic-form="initial" 
d="M470 -441q-57 6 -89 43.5t-32 88.5q0 85 40 175t118 193l73 -45q-86 -119 -86 -215q0 -37 25.5 -60.5t85.5 -41.5q-14 -28 -33 -53t-38.5 -44t-36.5 -30t-27 -11zM-20 196h78q57 0 106 2.5t89 14.5t70.5 35.5t50.5 65.5q15 32 15 84q0 18 -4.5 68t-39.5 156
q-11 32 -25.5 69.5t-28.5 69.5l-33 75l178 88q0 -1 9.5 -20.5t23.5 -52.5t31 -76.5t32 -92.5q53 -164 53 -287q0 -92 -30 -161q-30 -68 -72.5 -113t-99 -72t-127 -38t-155.5 -11h-121v196z" />
    <glyph glyph-name="uni06C1.medi" unicode="&#x6c1;" horiz-adv-x="1011" arabic-form="medial" 
d="M841 -547q-29 3 -51 14.5t-37.5 29.5t-23.5 40.5t-8 46.5q0 44 9.5 85.5t28 83.5t46 85.5t63.5 91.5l74 -45q-76 -103 -76 -192q0 -37 25.5 -60.5t85.5 -42.5q-12 -29 -31.5 -53.5t-40 -42.5t-38 -29t-26.5 -12zM-20 196h19q48 0 75.5 6.5t44.5 20.5q11 9 18.5 25
t16.5 40q5 14 11 29.5t15 31.5l181 -64q-19 -96 -19 -180q0 -226 132 -375q12 99 47.5 184t95 147.5t143.5 98.5t192 36h79v-196h-78q-72 0 -125 -23.5t-90 -62t-59 -87.5t-31 -100q-7 -43 -7 -83q0 -9 0.5 -38t11.5 -68l-149 -84q-170 106 -261 268q-38 69 -60.5 143
t-30.5 158q-35 -11 -70.5 -17t-83.5 -6h-18v196z" />
    <glyph glyph-name="uni06BE.fina" unicode="&#x6be;" horiz-adv-x="1172" arabic-form="final" 
d="M746 705q-16 -12 -39.5 -35t-49.5 -58q-15 -21 -31 -48t-31 -60.5t-28 -72.5t-21 -84q-6 -41 -6 -85q0 -26 2 -54q97 18 159.5 64.5t93.5 105.5t33 124v5q0 61 -24 114q-14 30 -29.5 51.5t-28.5 32.5zM36 14q0 20 5.5 34t17 25t30 20t45.5 20l211 84q-3 34 -3 68
q0 45 8 105.5t32 136.5q17 50 38 92.5t43 77.5t44 63t41 49q15 17 36.5 38t47.5 40t54.5 32t58.5 15h5q31 0 60.5 -14t54 -34.5t42 -41.5t26.5 -32q64 -90 84 -200q7 -41 7 -84q0 -21 -4 -65t-25.5 -107t-58.5 -118.5t-89 -95.5q-42 -31 -88.5 -54t-103.5 -37
q-32 -10 -68 -16q46 -116 137 -238q8 52 29 103.5t52.5 98.5t72 87t87.5 69t99.5 45t107.5 16h20v-196h-28q-54 0 -98.5 -23t-76.5 -62t-50.5 -89t-20.5 -103v-18q0 -45 13.5 -94t48.5 -94l-1 -2l25 -21l-125 -152q-190 154 -311.5 310t-176.5 323l-9 25l-248 -84
q-42 0 -70 28t-28 70z" />
    <glyph glyph-name="uni06BE.init" unicode="&#x6be;" horiz-adv-x="1522" arabic-form="initial" 
d="M-20 196h27q60 0 105.5 1t82.5 3t67.5 5t59.5 7q-75 81 -112.5 159.5t-37.5 151.5q0 50 13.5 105.5t42 107t71.5 96t103 73.5l-79 31l95 180l348 -143q93 -41 179.5 -82t160 -82t129.5 -83t87 -84q92 -128 92 -260q0 -99 -51.5 -183.5t-157.5 -141.5l1 1
q-28 -17 -66 -28.5t-79.5 -19t-83.5 -10.5t-77 -3q-88 0 -170.5 13t-167.5 47q-53 -16 -119.5 -27t-139.5 -17.5t-149 -9.5t-147 -3h-27v196zM956 571q0 -42 -12 -91t-33.5 -98.5t-52.5 -97.5t-69 -88q32 -5 53 -6t39 -1q94 0 160 16.5t107.5 44.5t60 65.5t18.5 78.5
q0 35 -18 76t-53.5 82.5t-88.5 81.5t-124 73q11 -38 12 -72t1 -64zM751 579q0 30 -4.5 63.5t-19 64t-41 54t-69.5 32.5q-19 4 -37 4q-34 0 -72 -18t-71.5 -57t-52.5 -88t-19 -94q0 -42 15 -80t40.5 -71.5t59.5 -63t72 -54.5q51 23 88.5 58t62 76.5t36.5 86.5t12 87z" />
    <glyph glyph-name="uni06BE.medi" unicode="&#x6be;" horiz-adv-x="1035" arabic-form="medial" 
d="M1055 196v-196h-28q-56 -2 -105.5 -27.5t-87.5 -66.5t-61.5 -93.5t-27.5 -107.5q-1 -10 -1 -19q0 -46 17 -96t64 -96l-125 -152q-106 64 -189 140t-146 158t-107 167t-71 168l-9 25h-198v196h161q-1 13 -1 28q0 47 8.5 113.5t30.5 145t55.5 155t79 137t102.5 98.5t125 41
h10q53 0 96.5 -30t76.5 -82t53.5 -118.5t28.5 -133.5q4 -40 4 -77q0 -27 -3.5 -70.5t-21.5 -86.5q-27 -64 -68 -115t-93 -88.5t-113 -62t-128 -35.5q12 -29 31.5 -71t44.5 -84t54.5 -78.5t61.5 -55.5q-1 15 -1 30q0 47 14 99.5t46 104.5t77 95.5t98 74.5t110.5 48.5
t115.5 17.5h20zM542 705q-28 -3 -55.5 -29.5t-52.5 -68t-45 -93.5t-33.5 -106t-18.5 -106q-2 -24 -2 -46q0 -26 3 -48q16 -2 31 -2q48 0 94.5 21.5t84 66t58.5 101.5t21.5 115t-20 110t-65.5 85z" />
    <glyph glyph-name="uni06D2.fina" unicode="&#x6d2;" horiz-adv-x="991" arabic-form="final" 
d="M1011 195v-194h-558q-45 0 -81 -16.5t-60 -41t-33 -53.5q-4 -14 -4 -28q0 -13 6.5 -31.5t36.5 -35t84 -16.5h966v-194h-962q-93 0 -158 26t-104 69t-53 98q-9 35 -9 71q0 20 5 59t34 94t76.5 98t112 69t143.5 26h558z" />
    <glyph glyph-name="uni06D3.fina" unicode="&#x6d3;" horiz-adv-x="991" arabic-form="final" 
d="M1011 195v-194h-558q-45 0 -81 -16.5t-60 -41t-33 -53.5q-4 -14 -4 -28q0 -13 6.5 -31.5t36.5 -35t84 -16.5h966v-194h-962q-93 0 -158 26t-104 69t-53 98q-9 35 -9 71q0 20 5 59t34 94t76.5 98t112 69t143.5 26h558zM545 722q-33 7 -53 10t-39 3q-15 0 -30.5 -1.5
t-31.5 -8.5q-23 -10 -38.5 -27t-23.5 -38q-7 -19 -7 -38v-15t10 -32q11 -20 30 -37t41.5 -27t47.5 -11h4q22 0 42 11l139 75l59 -78l-242 -142l-227 -126l-48 87l179 100q-42 17 -73 49t-48 71q-14 36 -14 74q0 31 9.5 60.5t27 55t42 45.5t54.5 32q45 19 98 19q23 0 44 -3
t38 -7l38 -9z" />
    <glyph glyph-name="uni0649.init" unicode="&#x649;" horiz-adv-x="723" arabic-form="initial" 
d="M-20 196h116q58 0 107 2.5t89 14.5t70 35.5t50 65.5q10 21 15 53q3 21 3 45q0 13 -2 39.5t-13 73t-32 97.5l-87 214l178 88q0 -1 9 -20.5t23.5 -52.5t31.5 -76.5t32 -92.5q45 -145 52 -256q1 -16 1 -32q0 -91 -30 -160q-30 -68 -73.5 -113t-100.5 -72t-127.5 -38
t-152.5 -11h-159v196z" />
    <glyph glyph-name="uni0649.medi" unicode="&#x649;" horiz-adv-x="705" arabic-form="medial" 
d="M725 196v-196h-20q-101 0 -168 34.5t-110 89.5q-63 -63 -163 -93.5t-247 -30.5h-37v196h37q168 0 244 60.5t76 179.5q0 57 -8.5 116t-30.5 135l188 53q10 -35 17 -67.5t12 -68.5t9.5 -78t8.5 -95q3 -37 11 -78t26.5 -76t51 -58t83.5 -23h20z" />
    <glyph glyph-name="uni06CC.fina" unicode="&#x6cc;" horiz-adv-x="1715" arabic-form="final" 
d="M830 -652q-87 0 -180 8.5t-178.5 34.5t-158 73.5t-118.5 125.5q-97 142 -97 361q0 24 1 49q13 272 170 652l183 -74q-157 -386 -157 -629q0 -154 63 -250q41 -59 101.5 -90.5t126 -45.5t130 -16t114.5 -2q29 0 82 4.5t115 15.5t126.5 29.5t116.5 45.5t85.5 64t33.5 86
q0 12 -11 28.5t-35.5 35t-63.5 39.5t-96 42q-35 12 -69.5 22t-64.5 18t-55 13.5t-41 8.5l-22 4l15 195h789v-196h-258q34 -28 55.5 -56.5t33.5 -55.5t16 -52t4 -46q-1 -85 -39 -151t-100 -115t-141 -82.5t-162.5 -54.5t-165.5 -30t-148 -9z" />
    <glyph glyph-name="uni06CC.init" unicode="&#x6cc;" horiz-adv-x="843" arabic-form="initial" 
d="M-20 196h193q58 0 113 2.5t102 14.5t83 35.5t56 65.5q10 21 15 53q3 21 3 45q0 13 -2 39.5t-13 73t-32 97.5l-87 214l178 88q0 -1 9 -20.5t23.5 -52.5t31.5 -76.5t32 -92.5q45 -145 52 -256q1 -16 1 -32q0 -91 -30 -160q-30 -68 -79.5 -113t-113.5 -72t-140.5 -38
t-158.5 -11h-236v196zM328 -327l-162 -162l-164 163l162 163zM738 -328l-162 -163l-164 164l162 162z" />
    <glyph glyph-name="uni06CC.medi" unicode="&#x6cc;" horiz-adv-x="852" arabic-form="medial" 
d="M872 196v-196h-20q-101 0 -168 34.5t-110 89.5q-32 -31 -70 -54.5t-90 -39t-121.5 -23t-163.5 -7.5h-149v196h149q95 0 162.5 15t110 45t62.5 75t20 105q0 57 -8.5 116t-30.5 135l188 53q10 -35 17 -67.5t12 -68.5t9.5 -78t8.5 -95q3 -37 11 -78t26.5 -76t51 -58
t83.5 -23h20zM328 -327l-162 -162l-164 163l162 163zM738 -328l-162 -163l-164 164l162 162z" />
    <glyph glyph-name="uni0651064C" unicode="&#xfc5e;" arabic-form="isolated" 
d="M-122 1684q-29 0 -51.5 6t-39 16t-27 21.5t-16.5 22.5q-18 30 -20 65v17q0 25 4.5 51.5t14 50t14.5 31.5l77 -36q-6 -13 -12 -31t-9 -37q-3 -15 -3 -29v-14.5t7 -22.5q6 -9 20.5 -16t31.5 -9q5 -1 10 -1q12 0 26.5 4t23.5 16q13 15 20 37.5t9 46t2 45v36.5l77 7
q7 -63 17.5 -99t22.5 -53.5t24 -21.5t21 -4q27 2 42 16t20 35q2 10 2 22q0 11 -3 30.5t-12 45t-22 49t-27 39.5l71 49q6 -9 23 -36.5t32 -63.5t23 -76q3 -17 3 -33q0 -21 -6 -41q-11 -34 -28 -57t-37.5 -37t-42.5 -20t-42 -6q-23 0 -53.5 10t-55.5 42q-17 -34 -50.5 -50.5
t-80.5 -16.5zM-58 2155l52 19.5t56 22.5t53.5 25.5t44.5 28.5q-22 11 -37.5 18t-31.5 15q-45 22 -69 50.5t-33 58.5q-8 23 -8 46q0 6 2 23.5t11 37.5q15 31 42 57t59 41.5t68 18.5h8q31 0 59 -14q40 -20 62.5 -57.5t30.5 -81.5q4 -26 4 -51q0 -19 -3.5 -50.5t-16.5 -65.5
l31 -9l-28 -91q-8 2 -22.5 7t-29.5 11q-28 -29 -63.5 -52.5t-73.5 -42.5t-76 -33t-69 -24t-53.5 -16t-30.5 -8l-49 78q7 11 13.5 31t10.5 43q2 17 2 34q0 6 -0.5 19.5t-7.5 27.5q-4 6 -9.5 11t-20.5 7q-13 0 -25.5 -5t-23 -11.5t-19 -13.5t-12.5 -10l-65 65q3 4 15 15t32 23
t47 21q23 7 49 7h7q35 -2 62.5 -19t43.5 -47q9 -17 12 -44t3 -53q0 -30 -3 -63zM68 2458q-1 -3 -4 -11q-1 -4 -1 -10q0 -5 2 -14.5t14 -24t41 -29.5l86 -41q4 18 9 45.5t4.5 55.5t-9.5 52.5t-33 36.5q-11 5 -22 5q-5 0 -16.5 -2.5t-26.5 -12.5t-27 -24t-17 -26z" />
    <glyph glyph-name="uni0651064D" unicode="&#xfc5f;" arabic-form="isolated" 
d="M-122 1684q-29 0 -51.5 6t-39 16t-27 21.5t-16.5 22.5q-18 30 -20 65v17q0 25 4.5 51.5t14 50t14.5 31.5l77 -36q-6 -13 -12 -31t-9 -37q-3 -15 -3 -29v-14.5t7 -22.5q6 -9 20.5 -16t31.5 -9q5 -1 10 -1q12 0 26.5 4t23.5 16q13 15 20 37.5t9 46t2 45v36.5l77 7
q7 -63 17.5 -99t22.5 -53.5t24 -21.5t21 -4q27 2 42 16t20 35q2 10 2 22q0 11 -3 30.5t-12 45t-22 49t-27 39.5l71 49q6 -9 23 -36.5t32 -63.5t23 -76q3 -17 3 -33q0 -21 -6 -41q-11 -34 -28 -57t-37.5 -37t-42.5 -20t-42 -6q-23 0 -53.5 10t-55.5 42q-17 -34 -50.5 -50.5
t-80.5 -16.5zM253 1296l-502 -178v111l502 171v-104zM253 1555l-502 -178v111l502 171v-104z" />
    <glyph glyph-name="uni0651064E" unicode="&#xfc60;" arabic-form="isolated" 
d="M-122 1684q-29 0 -51.5 6t-39 16t-27 21.5t-16.5 22.5q-18 30 -20 65v17q0 25 4.5 51.5t14 50t14.5 31.5l77 -36q-6 -13 -12 -31t-9 -37q-3 -15 -3 -29v-14.5t7 -22.5q6 -9 20.5 -16t31.5 -9q5 -1 10 -1q12 0 26.5 4t23.5 16q13 15 20 37.5t9 46t2 45v36.5l77 7
q7 -63 17.5 -99t22.5 -53.5t24 -21.5t21 -4q27 2 42 16t20 35q2 10 2 22q0 11 -3 30.5t-12 45t-22 49t-27 39.5l71 49q6 -9 23 -36.5t32 -63.5t23 -76q3 -17 3 -33q0 -21 -6 -41q-11 -34 -28 -57t-37.5 -37t-42.5 -20t-42 -6q-23 0 -53.5 10t-55.5 42q-17 -34 -50.5 -50.5
t-80.5 -16.5zM253 2278l-502 -178v111l502 171v-104z" />
    <glyph glyph-name="uni0651064F" unicode="&#xfc61;" arabic-form="isolated" 
d="M-122 1684q-29 0 -51.5 6t-39 16t-27 21.5t-16.5 22.5q-18 30 -20 65v17q0 25 4.5 51.5t14 50t14.5 31.5l77 -36q-6 -13 -12 -31t-9 -37q-3 -15 -3 -29v-14.5t7 -22.5q6 -9 20.5 -16t31.5 -9q5 -1 10 -1q12 0 26.5 4t23.5 16q13 15 20 37.5t9 46t2 45v36.5l77 7
q7 -63 17.5 -99t22.5 -53.5t24 -21.5t21 -4q27 2 42 16t20 35q2 10 2 22q0 11 -3 30.5t-12 45t-22 49t-27 39.5l71 49q6 -9 23 -36.5t32 -63.5t23 -76q3 -17 3 -33q0 -21 -6 -41q-11 -34 -28 -57t-37.5 -37t-42.5 -20t-42 -6q-23 0 -53.5 10t-55.5 42q-17 -34 -50.5 -50.5
t-80.5 -16.5zM-259 2151q24 7 61 19.5t78.5 30t83.5 38.5t75 46q-22 11 -37.5 18t-31.5 15q-45 22 -69 50.5t-33 58.5q-8 23 -8 46q0 6 2 23.5t11 37.5q15 31 42 57t59 41.5t68 18.5h8q31 0 59 -14q40 -20 62.5 -57.5t30.5 -81.5q4 -26 4 -51q0 -19 -3.5 -50.5t-16.5 -65.5
l31 -9l-28 -91q-8 2 -22.5 7t-29.5 11q-42 -43 -100.5 -77t-114.5 -58t-99.5 -38t-55.5 -17zM-41 2492q-1 -3 -4 -11q-1 -4 -1 -10q0 -5 2 -14.5t14 -24t41 -29.5l86 -41q4 18 9 45.5t4.5 55.5t-9.5 52.5t-33 36.5q-11 5 -22 5q-5 0 -16.5 -2.5t-26.5 -12.5t-27 -24t-17 -26
z" />
    <glyph glyph-name="uni06510650" unicode="&#xfc62;" arabic-form="isolated" 
d="M-122 1684q-29 0 -51.5 6t-39 16t-27 21.5t-16.5 22.5q-18 30 -20 65v17q0 25 4.5 51.5t14 50t14.5 31.5l77 -36q-6 -13 -12 -31t-9 -37q-3 -15 -3 -29v-14.5t7 -22.5q6 -9 20.5 -16t31.5 -9q5 -1 10 -1q12 0 26.5 4t23.5 16q13 15 20 37.5t9 46t2 45v36.5l77 7
q7 -63 17.5 -99t22.5 -53.5t24 -21.5t21 -4q27 2 42 16t20 35q2 10 2 22q0 11 -3 30.5t-12 45t-22 49t-27 39.5l71 49q6 -9 23 -36.5t32 -63.5t23 -76q3 -17 3 -33q0 -21 -6 -41q-11 -34 -28 -57t-37.5 -37t-42.5 -20t-42 -6q-23 0 -53.5 10t-55.5 42q-17 -34 -50.5 -50.5
t-80.5 -16.5zM250 1518l-502 -178v111l502 171v-104z" />
    <glyph glyph-name="uniFC63" unicode="&#xfc63;" arabic-form="isolated" 
d="M-122 1684q-29 0 -51.5 6t-39 16t-27 21.5t-16.5 22.5q-18 30 -20 65v17q0 25 4.5 51.5t14 50t14.5 31.5l77 -36q-6 -13 -12 -31t-9 -37q-3 -15 -3 -29v-14.5t7 -22.5q6 -9 20.5 -16t31.5 -9q5 -1 10 -1q12 0 26.5 4t23.5 16q13 15 20 37.5t9 46t2 45v36.5l77 7
q7 -63 17.5 -99t22.5 -53.5t24 -21.5t21 -4q27 2 42 16t20 35q2 10 2 22q0 11 -3 30.5t-12 45t-22 49t-27 39.5l71 49q6 -9 23 -36.5t32 -63.5t23 -76q3 -17 3 -33q0 -21 -6 -41q-11 -34 -28 -57t-37.5 -37t-42.5 -20t-42 -6q-23 0 -53.5 10t-55.5 42q-17 -34 -50.5 -50.5
t-80.5 -16.5zM-61 2186q16 95 16 182q0 10 -1 61.5t-15 148.5l99 24q7 -39 12 -91t6 -110v-19q0 -49 -4.5 -104.5t-17.5 -112.5z" />
    <glyph glyph-name="fathatan_01" unicode="&#xfe70;" arabic-form="isolated" 
d="M253 1769l-502 -178v111l502 171v-104zM253 2028l-502 -178v111l502 171v-104z" />
    <glyph glyph-name="dammatan_01" unicode="&#xfe72;" arabic-form="isolated" 
d="M-58 1616l52 19.5t56 22.5t53.5 25.5t44.5 28.5q-22 11 -37.5 18t-31.5 15q-45 22 -69 50.5t-33 58.5q-8 23 -8 46q0 6 2 23.5t11 37.5q15 31 42 57t59 41.5t68 18.5h8q31 0 59 -14q40 -20 62.5 -57.5t30.5 -81.5q4 -26 4 -51q0 -19 -3.5 -50.5t-16.5 -65.5l31 -9
l-28 -91q-8 2 -22.5 7t-29.5 11q-28 -29 -63.5 -52.5t-73.5 -42.5t-76 -33t-69 -24t-53.5 -16t-30.5 -8l-49 78q7 11 13.5 31t10.5 43q2 17 2 34q0 6 -0.5 19.5t-7.5 27.5q-4 6 -9.5 11t-20.5 7q-13 0 -25.5 -5t-23 -11.5t-19 -13.5t-12.5 -10l-65 65q3 4 15 15t32 23t47 21
q23 7 49 7h7q35 -2 62.5 -19t43.5 -47q9 -17 12 -44t3 -53q0 -30 -3 -63zM68 1919q-1 -3 -4 -11q-1 -4 -1 -10q0 -5 2 -14.5t14 -24t41 -29.5l86 -41q4 18 9 45.5t4.5 55.5t-9.5 52.5t-33 36.5q-11 5 -22 5q-5 0 -16.5 -2.5t-26.5 -12.5t-27 -24t-17 -26z" />
    <glyph glyph-name="kasratan_01" unicode="&#xfe74;" arabic-form="isolated" 
d="M244 -641l-502 -178v111l502 171v-104zM244 -382l-502 -178v111l502 171v-104z" />
    <glyph glyph-name="fatha_01" unicode="&#xfe76;" arabic-form="isolated" 
d="M249 1766l-502 -178v111l502 171v-104z" />
    <glyph glyph-name="damma_01" unicode="&#xfe78;" arabic-form="isolated" 
d="M-259 1604q24 7 61 19.5t78.5 30t83.5 38.5t75 46q-22 11 -37.5 18t-31.5 15q-45 22 -69 50.5t-33 58.5q-8 23 -8 46q0 6 2 23.5t11 37.5q15 31 42 57t59 41.5t68 18.5h8q31 0 59 -14q40 -20 62.5 -57.5t30.5 -81.5q4 -26 4 -51q0 -19 -3.5 -50.5t-16.5 -65.5l31 -9
l-28 -91q-8 2 -22.5 7t-29.5 11q-42 -43 -100.5 -77t-114.5 -58t-99.5 -38t-55.5 -17zM-41 1945q-1 -3 -4 -11q-1 -4 -1 -10q0 -5 2 -14.5t14 -24t41 -29.5l86 -41q4 18 9 45.5t4.5 55.5t-9.5 52.5t-33 36.5q-11 5 -22 5q-5 0 -16.5 -2.5t-26.5 -12.5t-27 -24t-17 -26z" />
    <glyph glyph-name="kasra_01" unicode="&#xfe7a;" arabic-form="isolated" 
d="M251 -385l-502 -178v111l502 171v-104z" />
    <glyph glyph-name="shadda_01" unicode="&#xfe7c;" arabic-form="isolated" 
d="M-122 1684q-29 0 -51.5 6t-39 16t-27 21.5t-16.5 22.5q-18 30 -20 65v17q0 25 4.5 51.5t14 50t14.5 31.5l77 -36q-6 -13 -12 -31t-9 -37q-3 -15 -3 -29v-14.5t7 -22.5q6 -9 20.5 -16t31.5 -9q5 -1 10 -1q12 0 26.5 4t23.5 16q13 15 20 37.5t9 46t2 45v36.5l77 7
q7 -63 17.5 -99t22.5 -53.5t24 -21.5t21 -4q27 2 42 16t20 35q2 10 2 22q0 11 -3 30.5t-12 45t-22 49t-27 39.5l71 49q6 -9 23 -36.5t32 -63.5t23 -76q3 -17 3 -33q0 -21 -6 -41q-11 -34 -28 -57t-37.5 -37t-42.5 -20t-42 -6q-23 0 -53.5 10t-55.5 42q-17 -34 -50.5 -50.5
t-80.5 -16.5z" />
    <glyph glyph-name="sukun_01" unicode="&#xfe7e;" arabic-form="isolated" 
d="M1 1776q21 0 40 10.5t33.5 27t22.5 36.5t8 39t-8 38.5t-22.5 36t-33.5 27t-40 10.5t-40 -10.5t-33 -27t-22.5 -36t-8.5 -38.5t8.5 -39t22.5 -36.5t33 -27t40 -10.5zM1 2108q50 0 90.5 -19.5t69 -50.5t44 -70t15.5 -79t-16 -79t-44.5 -70.5t-69 -51t-89.5 -19.5
q-50 0 -90.5 19.5t-69 50.5t-44 70.5t-15.5 79.5t16 79.5t44.5 70.5t69 50t89.5 19z" />
    <glyph glyph-name="uni0622.fina" unicode="&#x622;" horiz-adv-x="640" arabic-form="final" 
d="M660 0h-20q-119 0 -197 28t-123.5 80t-64 125.5t-18.5 165.5q0 183 2 371v37q0 168 -8 330q-4 78 -11 150.5t-16 120.5l196 36q9 -51 16 -125t11 -151q12 -188 12 -370q0 -14 -0.5 -119t-2.5 -301q0 -60 14.5 -95.5t41 -54.5t63 -25.5t81.5 -6.5h24v-196zM-30 1539
q9 45 32.5 86.5t57.5 73t75 50t84 18.5q45 0 80 -11t66 -24q27 -11 53.5 -19t57.5 -9h4q22 0 44 11t41.5 27.5t33 32.5t19.5 24l114 -74q-1 -2 -10 -15t-25.5 -31.5t-39.5 -39t-51.5 -37.5t-62.5 -28q-31 -10 -66 -10h-6q-45 0 -82 11.5t-69.5 24t-61.5 21.5q-19 6 -39 6
q-10 0 -21 -2q-18 -2 -34 -17.5t-28.5 -36t-21 -41t-12.5 -32.5z" />
    <glyph glyph-name="uni0623.fina" unicode="&#x623;" horiz-adv-x="640" arabic-form="final" 
d="M660 0h-20q-119 0 -197 28t-123.5 80t-64 125.5t-18.5 165.5q0 183 2 371v37q0 168 -8 330q-4 78 -11 150.5t-16 120.5l196 36q9 -51 16 -125t11 -151q12 -188 12 -370q0 -14 -0.5 -119t-2.5 -301q0 -60 14.5 -95.5t41 -54.5t63 -25.5t81.5 -6.5h24v-196zM404 1935
q-33 7 -53 10t-39 3q-15 0 -30.5 -1.5t-31.5 -8.5q-23 -10 -38.5 -27t-23.5 -38q-7 -19 -7 -38v-15t10 -32q11 -20 30 -37t41.5 -27t47.5 -11h4q22 0 42 11l139 75l59 -78l-242 -142l-227 -126l-48 87l179 100q-42 17 -73 49t-48 71q-14 36 -14 74q0 31 9.5 60.5t27 55
t42 45.5t54.5 32q45 19 98 19q23 0 44 -3t38 -7l38 -9z" />
    <glyph glyph-name="uni0624.fina" unicode="&#x624;" horiz-adv-x="1043" arabic-form="final" 
d="M78 -509q154 31 276 86t209 124t137.5 146.5t61.5 152.5h-46h-67.5t-98.5 5q-217 13 -321 142q-46 58 -58 134q-7 40 -7 80q0 38 8.5 96.5t39.5 133t73 128.5q51 63 110.5 95.5t123.5 32.5q142 0 261 -128q42 -47 76 -106t58 -126.5t38 -141t16 -149.5h95v-196h-110
q-30 -148 -108.5 -267.5t-190 -208.5t-248 -146t-282.5 -80zM519 650q-29 0 -55 -22.5t-46.5 -57.5t-34.5 -78.5t-19 -85.5q-3 -23 -3 -45q0 -18 3.5 -44.5t20.5 -47.5q15 -20 37.5 -32.5t48 -20t50 -11t42.5 -4.5q50 -3 94 -3q11 0 42.5 0.5t70.5 3.5q-3 64 -15 121
t-31 106t-42.5 88.5t-48.5 68.5q-10 10 -22.5 21.5t-27 21t-30.5 15.5t-34 6zM571 1380q-33 7 -53 10t-39 3q-15 0 -30.5 -1.5t-31.5 -8.5q-23 -10 -38.5 -27t-23.5 -38q-7 -19 -7 -38v-15t10 -32q11 -20 30 -37t41.5 -27t47.5 -11h4q22 0 42 11l139 75l59 -78l-242 -142
l-227 -126l-48 87l179 100q-42 17 -73 49t-48 71q-14 36 -14 74q0 31 9.5 60.5t27 55t42 45.5t54.5 32q45 19 98 19q23 0 44 -3t38 -7l38 -9z" />
    <glyph glyph-name="uni0625.fina" unicode="&#x625;" horiz-adv-x="640" arabic-form="final" 
d="M660 0h-20q-119 0 -197 28t-123.5 80t-64 125.5t-18.5 165.5q0 183 2 371v37q0 168 -8 330q-4 78 -11 150.5t-16 120.5l196 36q9 -51 16 -125t11 -151q12 -188 12 -370q0 -14 -0.5 -119t-2.5 -301q0 -60 14.5 -95.5t41 -54.5t63 -25.5t81.5 -6.5h24v-196zM470 -231
q-33 7 -53 10t-39 3q-15 0 -30.5 -1.5t-31.5 -8.5q-23 -10 -38.5 -27t-23.5 -38q-7 -19 -7 -38v-15t10 -32q11 -20 30 -37t41.5 -27t47.5 -11h4q22 0 42 11l139 75l59 -78l-242 -142l-227 -126l-48 87l179 100q-42 17 -73 49t-48 71q-14 36 -14 74q0 31 9.5 60.5t27 55
t42 45.5t54.5 32q45 19 98 19q23 0 44 -3t38 -7l38 -9z" />
    <glyph glyph-name="uni0626.fina" unicode="&#x626;" horiz-adv-x="1715" arabic-form="final" 
d="M830 -652q-87 0 -180 8.5t-178.5 34.5t-158 73.5t-118.5 125.5q-97 142 -97 361q0 24 1 49q13 272 170 652l183 -74q-157 -386 -157 -629q0 -154 63 -250q41 -59 101.5 -90.5t126 -45.5t130 -16t114.5 -2q29 0 82 4.5t115 15.5t126.5 29.5t116.5 45.5t85.5 64t33.5 86
q0 12 -11 28.5t-35.5 35t-63.5 39.5t-96 42q-35 12 -69.5 22t-64.5 18t-55 13.5t-41 8.5l-22 4l15 195h789v-196h-258q34 -28 55.5 -56.5t33.5 -55.5t16 -52t4 -46q-1 -85 -39 -151t-100 -115t-141 -82.5t-162.5 -54.5t-165.5 -30t-148 -9zM755 1229q-33 7 -53 10t-39 3
q-15 0 -30.5 -1.5t-31.5 -8.5q-23 -10 -38.5 -27t-23.5 -38q-7 -19 -7 -38v-15t10 -32q11 -20 30 -37t41.5 -27t47.5 -11h4q22 0 42 11l139 75l59 -78l-242 -142l-227 -126l-48 87l179 100q-42 17 -73 49t-48 71q-14 36 -14 74q0 31 9.5 60.5t27 55t42 45.5t54.5 32
q45 19 98 19q23 0 44 -3t38 -7l38 -9z" />
    <glyph glyph-name="uni0626.init" unicode="&#x626;" horiz-adv-x="838" arabic-form="initial" 
d="M-20 196h193q58 0 113 2.5t102 14.5t83 35.5t56 65.5q10 21 15 53q3 21 3 45q0 13 -2 39.5t-13 73t-32 97.5l-87 214l178 88q0 -1 9 -20.5t23.5 -52.5t31.5 -76.5t32 -92.5q45 -145 52 -256q1 -16 1 -32q0 -91 -30 -160q-30 -68 -79.5 -113t-113.5 -72t-140.5 -38
t-158.5 -11h-236v196zM534 1462q-33 7 -53 10t-39 3q-15 0 -30.5 -1.5t-31.5 -8.5q-23 -10 -38.5 -27t-23.5 -38q-7 -19 -7 -38v-15t10 -32q11 -20 30 -37t41.5 -27t47.5 -11h4q22 0 42 11l139 75l59 -78l-242 -142l-227 -126l-48 87l179 100q-42 17 -73 49t-48 71
q-14 36 -14 74q0 31 9.5 60.5t27 55t42 45.5t54.5 32q45 19 98 19q23 0 44 -3t38 -7l38 -9z" />
    <glyph glyph-name="uni0626.medi" unicode="&#x626;" horiz-adv-x="852" arabic-form="medial" 
d="M872 196v-196h-20q-101 0 -168 34.5t-110 89.5q-32 -31 -70 -54.5t-90 -39t-121.5 -23t-163.5 -7.5h-149v196h149q95 0 162.5 15t110 45t62.5 75t20 105q0 57 -8.5 116t-30.5 135l188 53q10 -35 17 -67.5t12 -68.5t9.5 -78t8.5 -95q3 -37 11 -78t26.5 -76t51 -58
t83.5 -23h20zM504 1291q-33 7 -53 10t-39 3q-15 0 -30.5 -1.5t-31.5 -8.5q-23 -10 -38.5 -27t-23.5 -38q-7 -19 -7 -38v-15t10 -32q11 -20 30 -37t41.5 -27t47.5 -11h4q22 0 42 11l139 75l59 -78l-242 -142l-227 -126l-48 87l179 100q-42 17 -73 49t-48 71q-14 36 -14 74
q0 31 9.5 60.5t27 55t42 45.5t54.5 32q45 19 98 19q23 0 44 -3t38 -7l38 -9z" />
    <glyph glyph-name="uni0627.fina" unicode="&#x627;" horiz-adv-x="624" arabic-form="final" 
d="M624 0q-110 0 -187.5 26t-131.5 80q-33 33 -50.5 71t-26 75t-9.5 70.5t-1 57.5q0 8 0.5 47.5t1.5 101.5t1 142q0 79 -1 167q0 86 -2 179t-6.5 180t-11 160.5t-15.5 120.5l196 36q9 -51 15.5 -125t11 -161t7 -181.5t2.5 -184.5v-502q0 -34 3.5 -63.5t26.5 -51.5
q23 -23 68.5 -36t108.5 -13h20v-196h-20z" />
    <glyph glyph-name="uni0628.fina" unicode="&#x628;" horiz-adv-x="2316" arabic-form="final" 
d="M1922 164q-40 48 -62 109q-264 -276 -833 -276q-304 2 -503.5 72.5t-289.5 222.5q-29 49 -44.5 101t-19.5 104q-2 26 -2 51t3 62.5t15 82.5q25 95 48.5 150.5t28.5 62.5l173 -95q0 -1 -9 -20t-20 -50t-21.5 -72t-12.5 -86q-1 -12 -1 -25q0 -33 7 -73.5t32 -82.5
q60 -103 214.5 -154t401.5 -52q221 0 376 38.5t258 122.5q46 36 79 79t56.5 89t40 93t29.5 92l190 -52q-5 -18 -11.5 -44.5t-11.5 -54t-8 -53.5q-3 -22 -3 -38v-8q2 -43 13 -90t42 -84q70 -89 233 -90h25v-196h-28q-260 3 -385 164zM1221 -358l-163 -163l-164 164l163 163z
" />
    <glyph glyph-name="uni0628.init" unicode="&#x628;" horiz-adv-x="715" arabic-form="initial" 
d="M-20 196h116q58 0 107 2.5t89 14.5t70 35.5t50 65.5q10 21 15 53q3 21 3 45q0 13 -2 39.5t-13 73t-32 97.5l-87 214l178 88q0 -1 9 -20.5t23.5 -52.5t31.5 -76.5t32 -92.5q45 -145 52 -256q1 -16 1 -32q0 -91 -30 -160q-30 -68 -73.5 -113t-100.5 -72t-127.5 -38
t-152.5 -11h-159v196zM466 -358l-163 -163l-164 164l163 163z" />
    <glyph glyph-name="uni0628.medi" unicode="&#x628;" horiz-adv-x="705" arabic-form="medial" 
d="M725 196v-196h-20q-101 0 -168 34.5t-110 89.5q-63 -63 -163 -93.5t-247 -30.5h-37v196h37q168 0 244 60.5t76 179.5q0 57 -8.5 116t-30.5 135l188 53q10 -35 17 -67.5t12 -68.5t9.5 -78t8.5 -95q3 -37 11 -78t26.5 -76t51 -58t83.5 -23h20zM499 -358l-163 -163l-164 164
l163 163z" />
    <glyph glyph-name="uni0629.fina" unicode="&#x629;" horiz-adv-x="1090" arabic-form="final" 
d="M1109 196v-196h-20q-38 0 -90.5 6.5t-104.5 30.5q-79 37 -132 122q-63 -10 -116.5 -14.5t-102.5 -4.5q-258 0 -359 125q-28 33 -39.5 72t-12.5 76v18q0 27 5 55t14 49q27 56 64.5 103t80 84.5t88 67t88 52t80.5 38t66 25.5q-8 76 -11.5 111.5t-3.5 36.5l196 41v1
q1 -8 4 -36.5t7 -67t8.5 -82t8.5 -81.5t7 -66t4 -35q16 -129 29 -211t23 -131t16 -69.5t9 -26.5q24 -54 64 -73.5t110 -19.5h20zM641 702q-24 -10 -57 -24.5t-68.5 -33t-70 -40.5t-62 -48t-44.5 -55.5t-17 -61.5t20.5 -53t53 -32.5t73.5 -15.5q34 -4 69 -4q7 0 31 0.5
t61.5 4.5t63.5 9q-12 58 -24.5 142t-28.5 212zM557 1344l-162 -162l-164 163l162 163zM967 1343l-162 -163l-164 164l162 162z" />
    <glyph glyph-name="uni062A.fina" unicode="&#x62a;" horiz-adv-x="2316" arabic-form="final" 
d="M1922 164q-40 48 -62 109q-264 -276 -833 -276q-304 2 -503.5 72.5t-289.5 222.5q-29 49 -44.5 101t-19.5 104q-2 26 -2 51t3 62.5t15 82.5q25 95 48.5 150.5t28.5 62.5l173 -95q0 -1 -9 -20t-20 -50t-21.5 -72t-12.5 -86q-1 -12 -1 -25q0 -33 7 -73.5t32 -82.5
q60 -103 214.5 -154t401.5 -52q221 0 376 38.5t258 122.5q46 36 79 79t56.5 89t40 93t29.5 92l190 -52q-5 -18 -11.5 -44.5t-11.5 -54t-8 -53.5q-3 -22 -3 -38v-8q2 -43 13 -90t42 -84q70 -89 233 -90h25v-196h-28q-260 3 -385 164zM1069 983l-162 -162l-164 163l162 163z
M1479 982l-162 -163l-164 164l162 162z" />
    <glyph glyph-name="uni062A.init" unicode="&#x62a;" horiz-adv-x="843" arabic-form="initial" 
d="M-20 196h193q58 0 113 2.5t102 14.5t83 35.5t56 65.5q10 21 15 53q3 21 3 45q0 13 -2 39.5t-13 73t-32 97.5l-87 214l178 88q0 -1 9 -20.5t23.5 -52.5t31.5 -76.5t32 -92.5q45 -145 52 -256q1 -16 1 -32q0 -91 -30 -160q-30 -68 -79.5 -113t-113.5 -72t-140.5 -38
t-158.5 -11h-236v196zM404 1265l-162 -162l-164 163l162 163zM814 1264l-162 -163l-164 164l162 162z" />
    <glyph glyph-name="uni062A.medi" unicode="&#x62a;" horiz-adv-x="852" arabic-form="medial" 
d="M872 196v-196h-20q-101 0 -168 34.5t-110 89.5q-32 -31 -70 -54.5t-90 -39t-121.5 -23t-163.5 -7.5h-149v196h149q95 0 162.5 15t110 45t62.5 75t20 105q0 57 -8.5 116t-30.5 135l188 53q10 -35 17 -67.5t12 -68.5t9.5 -78t8.5 -95q3 -37 11 -78t26.5 -76t51 -58
t83.5 -23h20zM404 1109l-162 -162l-164 163l162 163zM814 1108l-162 -163l-164 164l162 162z" />
    <glyph glyph-name="uni062B.fina" unicode="&#x62b;" horiz-adv-x="2316" arabic-form="final" 
d="M1922 164q-40 48 -62 109q-264 -276 -833 -276q-304 2 -503.5 72.5t-289.5 222.5q-29 49 -44.5 101t-19.5 104q-2 26 -2 51t3 62.5t15 82.5q25 95 48.5 150.5t28.5 62.5l173 -95q0 -1 -9 -20t-20 -50t-21.5 -72t-12.5 -86q-1 -12 -1 -25q0 -33 7 -73.5t32 -82.5
q60 -103 214.5 -154t401.5 -52q221 0 376 38.5t258 122.5q46 36 79 79t56.5 89t40 93t29.5 92l190 -52q-5 -18 -11.5 -44.5t-11.5 -54t-8 -53.5q-3 -22 -3 -38v-8q2 -43 13 -90t42 -84q70 -89 233 -90h25v-196h-28q-260 3 -385 164zM1161 969l162 162l164 -164l-162 -162z
M722 970l162 163l164 -164l-162 -163zM963 1271l148 148l149 -149l-148 -148z" />
    <glyph glyph-name="uni062B.init" unicode="&#x62b;" horiz-adv-x="843" arabic-form="initial" 
d="M-20 196h193q58 0 113 2.5t102 14.5t83 35.5t56 65.5q10 21 15 53q3 21 3 45q0 13 -2 39.5t-13 73t-32 97.5l-87 214l178 88q0 -1 9 -20.5t23.5 -52.5t31.5 -76.5t32 -92.5q45 -145 52 -256q1 -16 1 -32q0 -91 -30 -160q-30 -68 -79.5 -113t-113.5 -72t-140.5 -38
t-158.5 -11h-236v196zM469 1269l162 162l164 -164l-162 -162zM30 1270l162 163l164 -164l-162 -163zM271 1571l148 148l149 -149l-148 -148z" />
    <glyph glyph-name="uni062B.medi" unicode="&#x62b;" horiz-adv-x="852" arabic-form="medial" 
d="M872 196v-196h-20q-101 0 -168 34.5t-110 89.5q-32 -31 -70 -54.5t-90 -39t-121.5 -23t-163.5 -7.5h-149v196h149q95 0 162.5 15t110 45t62.5 75t20 105q0 57 -8.5 116t-30.5 135l188 53q10 -35 17 -67.5t12 -68.5t9.5 -78t8.5 -95q3 -37 11 -78t26.5 -76t51 -58
t83.5 -23h20zM469 1109l162 162l164 -164l-162 -162zM30 1110l162 163l164 -164l-162 -163zM271 1411l148 148l149 -149l-148 -148z" />
    <glyph glyph-name="uni062C.fina" unicode="&#x62c;" horiz-adv-x="1702" arabic-form="final" 
d="M912 -791q-109 0 -209.5 24t-188 68.5t-158 107t-118.5 139t-70 165.5q-17 64 -17 133q0 26 3 54q9 96 46 185.5t96 168t138 142t172 106.5q124 57 254 89t257 47l-108 52q-105 53 -192 91.5t-145 46.5q-19 3 -38 3q-117 0 -213 -102q-33 -36 -54 -70.5t-34 -61.5
l-184 76l11 22t24.5 44t38.5 58.5t54 65.5q88 97 194 137q76 29 159 29q33 0 68 -5q84 -11 180.5 -53.5t217.5 -102.5q109 -54 232 -111t268 -105l-38 -192q-2 0 -18.5 0.5t-46 1t-70 -0.5t-89.5 -4q0 -81 25 -131.5t72.5 -79.5t115.5 -39.5t155 -10.5h20v-196h-20
q-133 0 -238 24.5t-178 77.5t-112 136.5t-39 200.5q-112 -14 -226.5 -41t-220.5 -75q-23 -11 -56 -29.5t-69 -45t-72 -61.5t-65.5 -79t-50 -96.5t-25.5 -114.5q-1 -16 -1 -32q0 -77 26 -149t79 -132.5t127 -101.5t159.5 -63t177.5 -23h17q82 0 167.5 18.5t167.5 59
t148 103.5l129 -152q-71 -63 -149 -104.5t-159.5 -66t-164 -35t-162.5 -10.5zM1095 -115l-163 -163l-164 164l163 163z" />
    <glyph glyph-name="uni062C.init" unicode="&#x62c;" horiz-adv-x="1587" arabic-form="initial" 
d="M-20 196h217q133 0 266 25.5t262 67.5t252 96t237 111q-69 24 -132 52t-124 57q-47 22 -91.5 42.5t-86 36.5t-78.5 25.5t-68 9.5q-41 0 -78 -18t-68.5 -45.5t-56.5 -59t-43 -59t-27.5 -46t-9.5 -19.5l-180 81q1 2 8.5 17.5t22 39.5t35 55t47.5 63q78 94 165.5 141
t184.5 47q48 0 97.5 -11t100.5 -29.5t104 -42.5t107 -49q59 -28 119.5 -55t121.5 -48.5t122 -34.5t123 -13l38 -190q-70 -29 -139 -62.5t-144 -70.5q-110 -55 -236.5 -110t-265 -99.5t-286.5 -72.5t-299 -28h-217v196zM968 -356l-163 -163l-164 164l163 163z" />
    <glyph glyph-name="uni062C.medi" unicode="&#x62c;" horiz-adv-x="1667" arabic-form="medial" 
d="M-20 196h144q150 0 285 25.5t259.5 67.5t241.5 96t231 111q-69 24 -132 52t-124 57q-47 22 -91.5 42.5t-86 36.5t-78.5 25.5t-68 9.5q-41 0 -78 -18t-68.5 -45.5t-56.5 -59t-43 -59t-27.5 -46t-9.5 -19.5l-180 81q1 2 8.5 17.5t22 39.5t35 55t47.5 63q78 94 165.5 141
t184.5 47q48 0 97.5 -11t100.5 -29.5t104 -42.5t107 -49q59 -28 119.5 -55t121.5 -48.5t122 -34.5t123 -13l38 -190q-46 -20 -91 -40t-91 -43q11 -38 36.5 -64.5t59 -45t71 -29t73.5 -16.5t66 -7.5t48 -1.5h21v-196h-21q-99 0 -185 18.5t-154.5 53.5t-118 85.5t-74.5 114.5
q-103 -51 -215 -99.5t-236.5 -87t-263.5 -62t-295 -23.5h-144v196zM968 -358l-163 -163l-164 164l163 163z" />
    <glyph glyph-name="uni062D.fina" unicode="&#x62d;" horiz-adv-x="1702" arabic-form="final" 
d="M912 -791q-109 0 -209.5 24t-188 68.5t-158 107t-118.5 139t-70 165.5q-17 64 -17 133q0 26 3 54q9 96 46 185.5t96 168t138 142t172 106.5q124 57 254 89t257 47l-108 52q-105 53 -192 91.5t-145 46.5q-19 3 -38 3q-117 0 -213 -102q-33 -36 -54 -70.5t-34 -61.5
l-184 76l11 22t24.5 44t38.5 58.5t54 65.5q88 97 194 137q76 29 159 29q33 0 68 -5q84 -11 180.5 -53.5t217.5 -102.5q109 -54 232 -111t268 -105l-38 -192q-2 0 -18.5 0.5t-46 1t-70 -0.5t-89.5 -4q0 -81 25 -131.5t72.5 -79.5t115.5 -39.5t155 -10.5h20v-196h-20
q-133 0 -238 24.5t-178 77.5t-112 136.5t-39 200.5q-112 -14 -226.5 -41t-220.5 -75q-23 -11 -56 -29.5t-69 -45t-72 -61.5t-65.5 -79t-50 -96.5t-25.5 -114.5q-1 -16 -1 -32q0 -77 26 -149t79 -132.5t127 -101.5t159.5 -63t177.5 -23h17q82 0 167.5 18.5t167.5 59
t148 103.5l129 -152q-71 -63 -149 -104.5t-159.5 -66t-164 -35t-162.5 -10.5z" />
    <glyph glyph-name="uni062D.init" unicode="&#x62d;" horiz-adv-x="1587" arabic-form="initial" 
d="M-20 196h217q133 0 266 25.5t262 67.5t252 96t237 111q-69 24 -132 52t-124 57q-47 22 -91.5 42.5t-86 36.5t-78.5 25.5t-68 9.5q-41 0 -78 -18t-68.5 -45.5t-56.5 -59t-43 -59t-27.5 -46t-9.5 -19.5l-180 81q1 2 8.5 17.5t22 39.5t35 55t47.5 63q78 94 165.5 141
t184.5 47q48 0 97.5 -11t100.5 -29.5t104 -42.5t107 -49q59 -28 119.5 -55t121.5 -48.5t122 -34.5t123 -13l38 -190q-70 -29 -139 -62.5t-144 -70.5q-110 -55 -236.5 -110t-265 -99.5t-286.5 -72.5t-299 -28h-217v196z" />
    <glyph glyph-name="uni062D.medi" unicode="&#x62d;" horiz-adv-x="1667" arabic-form="medial" 
d="M-20 196h144q150 0 285 25.5t259.5 67.5t241.5 96t231 111q-69 24 -132 52t-124 57q-47 22 -91.5 42.5t-86 36.5t-78.5 25.5t-68 9.5q-41 0 -78 -18t-68.5 -45.5t-56.5 -59t-43 -59t-27.5 -46t-9.5 -19.5l-180 81q1 2 8.5 17.5t22 39.5t35 55t47.5 63q78 94 165.5 141
t184.5 47q48 0 97.5 -11t100.5 -29.5t104 -42.5t107 -49q59 -28 119.5 -55t121.5 -48.5t122 -34.5t123 -13l38 -190q-46 -20 -91 -40t-91 -43q11 -38 36.5 -64.5t59 -45t71 -29t73.5 -16.5t66 -7.5t48 -1.5h21v-196h-21q-99 0 -185 18.5t-154.5 53.5t-118 85.5t-74.5 114.5
q-103 -51 -215 -99.5t-236.5 -87t-263.5 -62t-295 -23.5h-144v196z" />
    <glyph glyph-name="uni062E.fina" unicode="&#x62e;" horiz-adv-x="1702" arabic-form="final" 
d="M912 -791q-109 0 -209.5 24t-188 68.5t-158 107t-118.5 139t-70 165.5q-17 64 -17 133q0 26 3 54q9 96 46 185.5t96 168t138 142t172 106.5q124 57 254 89t257 47l-108 52q-105 53 -192 91.5t-145 46.5q-19 3 -38 3q-117 0 -213 -102q-33 -36 -54 -70.5t-34 -61.5
l-184 76l11 22t24.5 44t38.5 58.5t54 65.5q88 97 194 137q76 29 159 29q33 0 68 -5q84 -11 180.5 -53.5t217.5 -102.5q109 -54 232 -111t268 -105l-38 -192q-2 0 -18.5 0.5t-46 1t-70 -0.5t-89.5 -4q0 -81 25 -131.5t72.5 -79.5t115.5 -39.5t155 -10.5h20v-196h-20
q-133 0 -238 24.5t-178 77.5t-112 136.5t-39 200.5q-112 -14 -226.5 -41t-220.5 -75q-23 -11 -56 -29.5t-69 -45t-72 -61.5t-65.5 -79t-50 -96.5t-25.5 -114.5q-1 -16 -1 -32q0 -77 26 -149t79 -132.5t127 -101.5t159.5 -63t177.5 -23h17q82 0 167.5 18.5t167.5 59
t148 103.5l129 -152q-71 -63 -149 -104.5t-159.5 -66t-164 -35t-162.5 -10.5zM804 1389l-163 -163l-164 164l163 163z" />
    <glyph glyph-name="uni062E.init" unicode="&#x62e;" horiz-adv-x="1587" arabic-form="initial" 
d="M-20 196h217q133 0 266 25.5t262 67.5t252 96t237 111q-69 24 -132 52t-124 57q-47 22 -91.5 42.5t-86 36.5t-78.5 25.5t-68 9.5q-41 0 -78 -18t-68.5 -45.5t-56.5 -59t-43 -59t-27.5 -46t-9.5 -19.5l-180 81q1 2 8.5 17.5t22 39.5t35 55t47.5 63q78 94 165.5 141
t184.5 47q48 0 97.5 -11t100.5 -29.5t104 -42.5t107 -49q59 -28 119.5 -55t121.5 -48.5t122 -34.5t123 -13l38 -190q-70 -29 -139 -62.5t-144 -70.5q-110 -55 -236.5 -110t-265 -99.5t-286.5 -72.5t-299 -28h-217v196zM790 1264l-163 -163l-164 164l163 163z" />
    <glyph glyph-name="uni062E.medi" unicode="&#x62e;" horiz-adv-x="1667" arabic-form="medial" 
d="M-20 196h144q150 0 285 25.5t259.5 67.5t241.5 96t231 111q-69 24 -132 52t-124 57q-47 22 -91.5 42.5t-86 36.5t-78.5 25.5t-68 9.5q-41 0 -78 -18t-68.5 -45.5t-56.5 -59t-43 -59t-27.5 -46t-9.5 -19.5l-180 81q1 2 8.5 17.5t22 39.5t35 55t47.5 63q78 94 165.5 141
t184.5 47q48 0 97.5 -11t100.5 -29.5t104 -42.5t107 -49q59 -28 119.5 -55t121.5 -48.5t122 -34.5t123 -13l38 -190q-46 -20 -91 -40t-91 -43q11 -38 36.5 -64.5t59 -45t71 -29t73.5 -16.5t66 -7.5t48 -1.5h21v-196h-21q-99 0 -185 18.5t-154.5 53.5t-118 85.5t-74.5 114.5
q-103 -51 -215 -99.5t-236.5 -87t-263.5 -62t-295 -23.5h-144v196zM710 1268l-163 -163l-164 164l163 163z" />
    <glyph glyph-name="uni062F.fina" unicode="&#x62f;" horiz-adv-x="1262" arabic-form="final" 
d="M1282 196v-196h-20q-65 0 -115.5 10.5t-89 28.5t-67.5 42.5t-50 51.5q-42 -33 -84.5 -58t-91 -41.5t-105.5 -25t-128 -8.5q-118 0 -218.5 48.5t-185.5 136.5l113 159q60 -56 121 -89t121 -46q40 -9 80 -9q19 0 56.5 3.5t91.5 24.5q51 20 83.5 43.5t49.5 40.5l-316 760
l182 76q48 -117 87.5 -213t75 -182t70 -169.5t73.5 -174.5q20 -48 38.5 -87.5t44.5 -67t65 -43t99 -15.5h20z" />
    <glyph glyph-name="uni0630.fina" unicode="&#x630;" horiz-adv-x="1262" arabic-form="final" 
d="M1282 196v-196h-20q-65 0 -115.5 10.5t-89 28.5t-67.5 42.5t-50 51.5q-42 -33 -84.5 -58t-91 -41.5t-105.5 -25t-128 -8.5q-118 0 -218.5 48.5t-185.5 136.5l113 159q60 -56 121 -89t121 -46q40 -9 80 -9q19 0 56.5 3.5t91.5 24.5q51 20 83.5 43.5t49.5 40.5l-316 760
l182 76q48 -117 87.5 -213t75 -182t70 -169.5t73.5 -174.5q20 -48 38.5 -87.5t44.5 -67t65 -43t99 -15.5h20zM786 1488l-163 -163l-164 164l163 163z" />
    <glyph glyph-name="uni0631.fina" unicode="&#x631;" horiz-adv-x="816" arabic-form="final" 
d="M625 69q0 -131 -56 -250t-148.5 -221.5t-211.5 -187.5t-245 -148l-86 177q72 37 143 81.5t134 95.5t116 107.5t89.5 118.5t54.5 129q13 48 13 98q0 20 -2 37q-7 57 -21.5 122.5t-31.5 128.5t-34 118.5t-29 92.5l188 58q38 -116 74 -197.5t74 -133t79.5 -75.5t91.5 -24h16
v-196h-17q-14 0 -36 1t-48.5 8t-54 22t-52.5 42v-4z" />
    <glyph glyph-name="uni0632.fina" unicode="&#x632;" horiz-adv-x="816" arabic-form="final" 
d="M625 69q0 -131 -56 -250t-148.5 -221.5t-211.5 -187.5t-245 -148l-86 177q72 37 143 81.5t134 95.5t116 107.5t89.5 118.5t54.5 129q13 48 13 98q0 20 -2 37q-7 57 -21.5 122.5t-31.5 128.5t-34 118.5t-29 92.5l188 58q38 -116 74 -197.5t74 -133t79.5 -75.5t91.5 -24h16
v-196h-17q-14 0 -36 1t-48.5 8t-54 22t-52.5 42v-4zM558 1060l-163 -163l-164 164l163 163z" />
    <glyph glyph-name="uni0633.fina" unicode="&#x633;" horiz-adv-x="2889" arabic-form="final" 
d="M2909 196v-196h-20q-53 0 -104.5 14t-98 41t-85 65.5t-63.5 87.5q-20 -47 -49.5 -85t-67.5 -66t-83.5 -43t-96.5 -15q-27 0 -59 9t-63.5 26t-60 41.5t-49.5 56.5q-60 -70 -135.5 -101.5t-160.5 -31.5q-35 0 -61.5 3.5t-49.5 11t-44 19t-43 27.5q0 -198 -54.5 -333
t-152 -219.5t-232.5 -124t-295 -46.5h-39q-123 0 -229 35t-188.5 102t-136 162.5t-71.5 217.5q-9 63 -9 125q0 38 6 106.5t31.5 162t63 176.5t78.5 151l159 -118q-13 -17 -30.5 -50.5t-35 -78.5t-33 -99t-26 -112.5t-13.5 -117.5q-1 -16 -1 -33q0 -43 6 -84q4 -26 13.5 -62
t29 -74.5t50 -76t76.5 -67t109 -48t148 -18.5h34q425 20 516 298q29 98 34 191q1 22 1 43q0 70 -12 149t-38.5 165.5t-59.5 172.5l166 108q9 -25 16.5 -45t20.5 -52q24 -63 46.5 -128.5t53.5 -119t75.5 -87t113.5 -33.5q53 0 88.5 19.5t58.5 52.5t34.5 77.5t17.5 94.5
t7.5 103t3.5 104l203 -15q-1 -38 -3 -85q-1 -32 -1 -64v-49.5t6 -79t20.5 -83t39.5 -58.5t64 -22q53 0 86 30t51 77.5t24 106.5t6 118t-4.5 111t-6.5 86l196 14q2 -51 9 -110.5t20.5 -119.5t35 -116t53.5 -99t74.5 -69t99.5 -26h20z" />
    <glyph glyph-name="uni0633.init" unicode="&#x633;" horiz-adv-x="1658" arabic-form="initial" 
d="M-20 196h22q59 0 106 23.5t83.5 62t63.5 88.5t47 104.5t34 109.5t24 104l198 -42q-8 -24 -19.5 -62t-22.5 -81.5t-19 -89t-8 -84.5q0 -27 5 -52.5t17 -45.5t33 -32t53 -12q51 0 91.5 28t72 73t55 102t40 116t27 114.5t16.5 96.5l192 -35l-5 -32q-6 -33 -13.5 -79.5
t-13.5 -99t-6 -93.5q0 -37 5.5 -70.5t18 -59t33 -42t50.5 -19.5q19 -2 36 -2q29 0 57.5 7.5t51 30.5t32.5 58t10 79q0 57 -15.5 123t-37 129.5t-45 118t-39.5 86.5l175 92q5 -10 19 -38.5t32 -70t37 -94t35.5 -109.5t27 -117t10.5 -117q0 -86 -24 -155.5t-72 -118.5
t-120 -75q-70 -26 -163 -26h-7q-38 0 -76.5 12t-73.5 32.5t-65 48t-51 59.5q-60 -70 -136 -111t-161 -41q-37 0 -76.5 9.5t-75.5 28.5t-65.5 47t-45.5 65q-30 -32 -64 -57.5t-74 -43.5t-88.5 -27.5t-106.5 -9.5h-21v196z" />
    <glyph glyph-name="uni0633.medi" unicode="&#x633;" horiz-adv-x="1851" arabic-form="medial" 
d="M-20 196h21q42 0 81.5 19t74 50.5t63.5 71t51 80.5q23 46 39 90.5t27.5 84t18.5 72.5t13 57l192 -53q-6 -25 -15.5 -70t-18 -97.5t-11.5 -106.5q-1 -20 -1 -38q0 -32 5.5 -68.5t27 -64.5t62.5 -28q51 0 91.5 27t71.5 71t53 101t38 116t25.5 116.5t14.5 103.5l195 -37
q-5 -35 -13 -85t-12 -105q-4 -39 -4 -78q0 -16 1.5 -51t15 -78t42.5 -70t79 -27q48 0 79 28.5t49.5 75t26.5 104t10 115.5q1 29 1 57t-1.5 67t-3.5 75l196 16q3 -33 6.5 -66.5t9 -69.5t14 -76t23.5 -85q40 -123 98.5 -183.5t130.5 -60.5h24v-196h-24q-52 0 -102 14.5
t-94.5 41.5t-81.5 65t-63 86q-20 -47 -50 -85t-68.5 -65t-83.5 -42t-96 -15q-100 0 -175 51.5t-112 140.5q-27 -42 -60.5 -77.5t-73 -62t-84 -41t-93.5 -14.5q-47 0 -90.5 14t-78.5 40t-61 63t-39 82q-31 -44 -66 -80t-77 -61.5t-90.5 -40t-106.5 -14.5h-21v196z" />
    <glyph glyph-name="uni0634.fina" unicode="&#x634;" horiz-adv-x="2889" arabic-form="final" 
d="M2909 196v-196h-20q-53 0 -104.5 14t-98 41t-85 65.5t-63.5 87.5q-20 -47 -49.5 -85t-67.5 -66t-83.5 -43t-96.5 -15q-27 0 -59 9t-63.5 26t-60 41.5t-49.5 56.5q-60 -70 -135.5 -101.5t-160.5 -31.5q-35 0 -61.5 3.5t-49.5 11t-44 19t-43 27.5q0 -198 -54.5 -333
t-152 -219.5t-232.5 -124t-295 -46.5h-39q-123 0 -229 35t-188.5 102t-136 162.5t-71.5 217.5q-9 63 -9 125q0 38 6 106.5t31.5 162t63 176.5t78.5 151l159 -118q-13 -17 -30.5 -50.5t-35 -78.5t-33 -99t-26 -112.5t-13.5 -117.5q-1 -16 -1 -33q0 -43 6 -84q4 -26 13.5 -62
t29 -74.5t50 -76t76.5 -67t109 -48t148 -18.5h34q425 20 516 298q29 98 34 191q1 22 1 43q0 70 -12 149t-38.5 165.5t-59.5 172.5l166 108q9 -25 16.5 -45t20.5 -52q24 -63 46.5 -128.5t53.5 -119t75.5 -87t113.5 -33.5q53 0 88.5 19.5t58.5 52.5t34.5 77.5t17.5 94.5
t7.5 103t3.5 104l203 -15q-1 -38 -3 -85q-1 -32 -1 -64v-49.5t6 -79t20.5 -83t39.5 -58.5t64 -22q53 0 86 30t51 77.5t24 106.5t6 118t-4.5 111t-6.5 86l196 14q2 -51 9 -110.5t20.5 -119.5t35 -116t53.5 -99t74.5 -69t99.5 -26h20zM2043 1084l162 162l164 -164l-162 -162z
M1604 1085l162 163l164 -164l-162 -163zM1845 1386l148 148l149 -149l-148 -148z" />
    <glyph glyph-name="uni0634.init" unicode="&#x634;" horiz-adv-x="1658" arabic-form="initial" 
d="M-20 196h22q59 0 106 23.5t83.5 62t63.5 88.5t47 104.5t34 109.5t24 104l198 -42q-8 -24 -19.5 -62t-22.5 -81.5t-19 -89t-8 -84.5q0 -27 5 -52.5t17 -45.5t33 -32t53 -12q51 0 91.5 28t72 73t55 102t40 116t27 114.5t16.5 96.5l192 -35l-5 -32q-6 -33 -13.5 -79.5
t-13.5 -99t-6 -93.5q0 -37 5.5 -70.5t18 -59t33 -42t50.5 -19.5q19 -2 36 -2q29 0 57.5 7.5t51 30.5t32.5 58t10 79q0 57 -15.5 123t-37 129.5t-45 118t-39.5 86.5l175 92q5 -10 19 -38.5t32 -70t37 -94t35.5 -109.5t27 -117t10.5 -117q0 -86 -24 -155.5t-72 -118.5
t-120 -75q-70 -26 -163 -26h-7q-38 0 -76.5 12t-73.5 32.5t-65 48t-51 59.5q-60 -70 -136 -111t-161 -41q-37 0 -76.5 9.5t-75.5 28.5t-65.5 47t-45.5 65q-30 -32 -64 -57.5t-74 -43.5t-88.5 -27.5t-106.5 -9.5h-21v196zM969 1177l162 162l164 -164l-162 -162zM530 1178
l162 163l164 -164l-162 -163zM771 1479l148 148l149 -149l-148 -148z" />
    <glyph glyph-name="uni0634.medi" unicode="&#x634;" horiz-adv-x="1851" arabic-form="medial" 
d="M-20 196h21q42 0 81.5 19t74 50.5t63.5 71t51 80.5q23 46 39 90.5t27.5 84t18.5 72.5t13 57l192 -53q-6 -25 -15.5 -70t-18 -97.5t-11.5 -106.5q-1 -20 -1 -38q0 -32 5.5 -68.5t27 -64.5t62.5 -28q51 0 91.5 27t71.5 71t53 101t38 116t25.5 116.5t14.5 103.5l195 -37
q-5 -35 -13 -85t-12 -105q-4 -39 -4 -78q0 -16 1.5 -51t15 -78t42.5 -70t79 -27q48 0 79 28.5t49.5 75t26.5 104t10 115.5q1 29 1 57t-1.5 67t-3.5 75l196 16q3 -33 6.5 -66.5t9 -69.5t14 -76t23.5 -85q40 -123 98.5 -183.5t130.5 -60.5h24v-196h-24q-52 0 -102 14.5
t-94.5 41.5t-81.5 65t-63 86q-20 -47 -50 -85t-68.5 -65t-83.5 -42t-96 -15q-100 0 -175 51.5t-112 140.5q-27 -42 -60.5 -77.5t-73 -62t-84 -41t-93.5 -14.5q-47 0 -90.5 14t-78.5 40t-61 63t-39 82q-31 -44 -66 -80t-77 -61.5t-90.5 -40t-106.5 -14.5h-21v196zM1049 1084
l162 162l164 -164l-162 -162zM610 1085l162 163l164 -164l-162 -163zM851 1386l148 148l149 -149l-148 -148z" />
    <glyph glyph-name="uni0635.fina" unicode="&#x635;" horiz-adv-x="2868" arabic-form="final" 
d="M798 -649q-207 0 -348 63.5t-218 176.5t-91 269q-4 38 -4 78q0 122 35 261q15 60 34 114t38 97.5t34.5 74t24.5 43.5l166 -106q-25 -42 -50 -100t-44.5 -125t-29.5 -139q-8 -53 -8 -104q0 -19 2.5 -62.5t24.5 -106.5t67 -112.5t116 -81t175 -38.5q33 -2 64 -2
q86 0 177 18.5t169 72.5t124 141.5t51 211.5q1 17 1 34q0 44 -5 97t-16 112.5t-25.5 114.5t-29.5 101.5t-28.5 82t-22.5 56.5l184 77q30 -63 54 -113.5t49 -93.5t54.5 -81.5t71.5 -77.5q18 33 42 73t55 83t67.5 87t80.5 86q76 72 172.5 127t200.5 80q72 17 144 17
q31 0 98.5 -7.5t157.5 -69.5q41 -28 73.5 -64t55 -78.5t33.5 -90.5q8 -37 8 -76q0 -12 -1 -24q-9 -119 -68 -213q7 -7 24 -13.5t39 -12t46 -9t46 -3.5h20v-196h-20q-46 0 -91 8.5t-84 22t-70 30t-48 33.5l-8 -5q-54 -35 -113.5 -58t-119 -37t-116 -20t-103.5 -7
q-22 -1 -44 -1q-151 0 -292 32.5t-274 125.5q2 -37 2 -73t-2 -71q-10 -160 -67.5 -278t-151 -196t-218.5 -116.5t-270 -38.5zM1768 209q43 -15 98 -26t116 -16q44 -4 89 -4q18 0 59 1.5t103.5 11.5t120 29.5t104.5 49.5q115 72 127 205v8q0 55 -26 97.5t-71 67.5
q-56 32 -124 32q-2 0 -38 -1t-106 -25.5t-134 -64.5t-110 -83q-38 -36 -69.5 -74t-57.5 -75t-46 -71t-35 -62z" />
    <glyph glyph-name="uni0635.init" unicode="&#x635;" horiz-adv-x="1920" arabic-form="initial" 
d="M777 188q66 -4 155 -6h44q68 0 149.5 5t172 22t161.5 51t114 88q42 53 42 130v4q0 44 -15.5 77.5t-40 57t-56.5 38t-65.5 21.5t-66.5 6.5t-60 -6.5q-86 -19 -160 -60.5t-138.5 -103t-122.5 -143t-113 -181.5zM-20 196h23q59 0 101 9.5t71 23.5t46.5 30.5t28.5 31.5
q35 48 52 113t33 141q8 43 17 83t22 79l189 -57q-12 -41 -22 -90t-10 -101v-7q0 -49 12 -99t45 -98q52 110 120 209.5t153 180t188.5 138.5t227.5 86q57 13 113 13q12 0 51 -2.5t99 -23.5t111 -57t88 -85.5t57 -111.5q16 -54 16 -114v-19q-4 -110 -46 -189t-108.5 -133.5
t-151.5 -87t-176.5 -50.5t-183 -23.5t-170.5 -5.5q-101 0 -182.5 3.5t-149.5 21.5t-126 56.5t-113 109.5q-63 -88 -160.5 -129t-235.5 -42h-29v196z" />
    <glyph glyph-name="uni0635.medi" unicode="&#x635;" horiz-adv-x="1933" arabic-form="medial" 
d="M-20 196h23q59 0 101 9.5t71 23.5t46.5 30.5t28.5 31.5q35 48 52 113t33 141q8 43 17 83t22 79l189 -57q-12 -41 -22 -90t-10 -101v-7q0 -49 12 -99t45 -98q52 110 120 209.5t153 180t188.5 138.5t227.5 86q57 13 113 13q11 0 50 -2.5t99.5 -22.5t111.5 -56t87.5 -85.5
t56.5 -111.5q17 -56 17 -121v-14q-3 -88 -33 -155t-76 -118h250v-196h-680q-78 -12 -153.5 -16t-143.5 -4q-101 0 -182.5 3.5t-149.5 21.5t-126 56.5t-113 109.5q-63 -88 -160.5 -129t-235.5 -42h-29v196zM777 188q66 -4 155 -6h44q68 0 149.5 5t172 22t161.5 51t114 88
q42 53 42 130v4q0 44 -15.5 77.5t-40 57t-56.5 38t-65.5 21.5t-66.5 6.5t-60 -6.5q-86 -19 -160 -60.5t-138.5 -103t-122.5 -143t-113 -181.5z" />
    <glyph glyph-name="uni0636.fina" unicode="&#x636;" horiz-adv-x="2868" arabic-form="final" 
d="M798 -649q-207 0 -348 63.5t-218 176.5t-91 269q-4 38 -4 78q0 122 35 261q15 60 34 114t38 97.5t34.5 74t24.5 43.5l166 -106q-25 -42 -50 -100t-44.5 -125t-29.5 -139q-8 -53 -8 -104q0 -19 2.5 -62.5t24.5 -106.5t67 -112.5t116 -81t175 -38.5q33 -2 64 -2
q86 0 177 18.5t169 72.5t124 141.5t51 211.5q1 17 1 34q0 44 -5 97t-16 112.5t-25.5 114.5t-29.5 101.5t-28.5 82t-22.5 56.5l184 77q30 -63 54 -113.5t49 -93.5t54.5 -81.5t71.5 -77.5q18 33 42 73t55 83t67.5 87t80.5 86q76 72 172.5 127t200.5 80q72 17 144 17
q31 0 98.5 -7.5t157.5 -69.5q41 -28 73.5 -64t55 -78.5t33.5 -90.5q8 -37 8 -76q0 -12 -1 -24q-9 -119 -68 -213q7 -7 24 -13.5t39 -12t46 -9t46 -3.5h20v-196h-20q-46 0 -91 8.5t-84 22t-70 30t-48 33.5l-8 -5q-54 -35 -113.5 -58t-119 -37t-116 -20t-103.5 -7
q-22 -1 -44 -1q-151 0 -292 32.5t-274 125.5q2 -37 2 -73t-2 -71q-10 -160 -67.5 -278t-151 -196t-218.5 -116.5t-270 -38.5zM1768 209q43 -15 98 -26t116 -16q44 -4 89 -4q18 0 59 1.5t103.5 11.5t120 29.5t104.5 49.5q115 72 127 205v8q0 55 -26 97.5t-71 67.5
q-56 32 -124 32q-2 0 -38 -1t-106 -25.5t-134 -64.5t-110 -83q-38 -36 -69.5 -74t-57.5 -75t-46 -71t-35 -62zM2517 1256l-163 -163l-164 164l163 163z" />
    <glyph glyph-name="uni0636.init" unicode="&#x636;" horiz-adv-x="1920" arabic-form="initial" 
d="M777 188q66 -4 155 -6h44q68 0 149.5 5t172 22t161.5 51t114 88q42 53 42 130v4q0 44 -15.5 77.5t-40 57t-56.5 38t-65.5 21.5t-66.5 6.5t-60 -6.5q-86 -19 -160 -60.5t-138.5 -103t-122.5 -143t-113 -181.5zM-20 196h23q59 0 101 9.5t71 23.5t46.5 30.5t28.5 31.5
q35 48 52 113t33 141q8 43 17 83t22 79l189 -57q-12 -41 -22 -90t-10 -101v-7q0 -49 12 -99t45 -98q52 110 120 209.5t153 180t188.5 138.5t227.5 86q57 13 113 13q12 0 51 -2.5t99 -23.5t111 -57t88 -85.5t57 -111.5q16 -54 16 -114v-19q-4 -110 -46 -189t-108.5 -133.5
t-151.5 -87t-176.5 -50.5t-183 -23.5t-170.5 -5.5q-101 0 -182.5 3.5t-149.5 21.5t-126 56.5t-113 109.5q-63 -88 -160.5 -129t-235.5 -42h-29v196zM1576 1256l-163 -163l-164 164l163 163z" />
    <glyph glyph-name="uni0636.medi" unicode="&#x636;" horiz-adv-x="1933" arabic-form="medial" 
d="M-20 196h23q59 0 101 9.5t71 23.5t46.5 30.5t28.5 31.5q35 48 52 113t33 141q8 43 17 83t22 79l189 -57q-12 -41 -22 -90t-10 -101v-7q0 -49 12 -99t45 -98q52 110 120 209.5t153 180t188.5 138.5t227.5 86q57 13 113 13q11 0 50 -2.5t99.5 -22.5t111.5 -56t87.5 -85.5
t56.5 -111.5q17 -56 17 -121v-14q-3 -88 -33 -155t-76 -118h250v-196h-680q-78 -12 -153.5 -16t-143.5 -4q-101 0 -182.5 3.5t-149.5 21.5t-126 56.5t-113 109.5q-63 -88 -160.5 -129t-235.5 -42h-29v196zM777 188q66 -4 155 -6h44q68 0 149.5 5t172 22t161.5 51t114 88
q42 53 42 130v4q0 44 -15.5 77.5t-40 57t-56.5 38t-65.5 21.5t-66.5 6.5t-60 -6.5q-86 -19 -160 -60.5t-138.5 -103t-122.5 -143t-113 -181.5zM1562 1256l-163 -163l-164 164l163 163z" />
    <glyph glyph-name="uni0637.fina" unicode="&#x637;" horiz-adv-x="1867" arabic-form="final" 
d="M856 0q-122 0 -225 10.5t-195.5 29.5t-176.5 45.5t-168 58.5l72 185q67 -26 131 -46.5t127 -36.5q42 61 132 178q12 86 18 154t6.5 134.5t-3 141t-10.5 173.5q-8 108 -17 200.5t-17 160t-13.5 106t-5.5 39.5l196 36l3 -26q3 -26 8 -68t11 -96t11.5 -110t11 -110t8.5 -97
q4 -56 6.5 -89.5t3.5 -56.5t2 -41.5t1.5 -43.5t1.5 -63.5t3 -101.5q121 115 236 178.5t225 83.5q38 7 77 7q42 0 104 -12t128.5 -54t110 -107t46.5 -149q1 -15 1 -29q0 -40 -9.5 -86.5t-30.5 -94t-49 -87.5t-56 -68q-14 -14 -29 -27t-30 -25h385l-1 -196h-301
q-70 0 -136.5 6t-119.5 13.5t-87 14t-38 7.5q-94 -26 -182 -33.5t-166 -7.5zM641 208q99 -11 206 -11h11q101 0 202.5 18t195.5 59t166 115q19 19 37 44.5t30.5 54t18.5 58.5q3 16 3 31q0 13 -2 25q-8 43 -33 70t-59 42t-73 19q-17 1 -33 1q-21 0 -42 -2
q-102 -16 -222 -99.5t-255 -233.5z" />
    <glyph glyph-name="uni0637.init" unicode="&#x637;" horiz-adv-x="1576" arabic-form="initial" 
d="M378 196h96q75 0 158.5 1.5t172 18t179.5 54.5t181 112q57 48 79 104q15 37 15 75q0 19 -4 38q-8 40 -33 68t-59.5 44.5t-74.5 20.5q-13 1 -26 1q-26 0 -51 -5q-103 -23 -222.5 -105t-255.5 -231q-25 -27 -46.5 -53t-108.5 -143zM-20 196h168q14 22 47.5 80.5
t100.5 143.5q11 64 16.5 157t6.5 221v36q0 107 -5.5 217t-17.5 228q-11 118 -17 175.5t-6 58.5l202 36q47 -349 47 -734q0 -76 -2 -153q243 225 460 262q45 7 89 7q55 0 129 -15.5t150 -89.5q45 -45 70 -97.5t30 -118.5q1 -13 1 -27q0 -41 -10.5 -89t-32 -97t-49 -90
t-55.5 -68q-86 -83 -178.5 -130.5t-184.5 -71.5t-179 -30.5t-162 -6.5h-618v196z" />
    <glyph glyph-name="uni0637.medi" unicode="&#x637;" horiz-adv-x="1583" arabic-form="medial" 
d="M378 196h96q75 0 160 3t175 20.5t180.5 55t175.5 107.5q57 47 79 104q15 37 15 75q0 19 -4 38q-8 40 -33 68t-59.5 44.5t-74.5 20.5q-13 1 -26 1q-26 0 -51 -5q-103 -23 -222.5 -105t-255.5 -231q-25 -27 -46.5 -53t-108.5 -143zM-20 196h168q14 22 47.5 80.5
t100.5 143.5q11 64 16.5 157t6.5 221v36q0 107 -5.5 217t-17.5 228q-11 118 -17 175.5t-6 58.5l202 36q47 -349 47 -734q0 -76 -2 -153q243 225 460 262q45 7 89 7q55 0 129 -15.5t150 -89.5q45 -45 70 -97.5t30 -118.5q1 -13 1 -27q0 -41 -10.5 -89t-32 -97t-49 -90
t-55.5 -68q-24 -24 -49 -43h350l-1 -196h-262q-73 0 -140.5 6.5t-120 14t-85.5 14t-36 7.5q-97 -28 -189 -35t-171 -7h-618v196z" />
    <glyph glyph-name="uni0638.fina" unicode="&#x638;" horiz-adv-x="1867" arabic-form="final" 
d="M856 0q-122 0 -225 10.5t-195.5 29.5t-176.5 45.5t-168 58.5l72 185q67 -26 131 -46.5t127 -36.5q42 61 132 178q12 86 18 154t6.5 134.5t-3 141t-10.5 173.5q-8 108 -17 200.5t-17 160t-13.5 106t-5.5 39.5l196 36l3 -26q3 -26 8 -68t11 -96t11.5 -110t11 -110t8.5 -97
q4 -56 6.5 -89.5t3.5 -56.5t2 -41.5t1.5 -43.5t1.5 -63.5t3 -101.5q121 115 236 178.5t225 83.5q38 7 77 7q42 0 104 -12t128.5 -54t110 -107t46.5 -149q1 -15 1 -29q0 -40 -9.5 -86.5t-30.5 -94t-49 -87.5t-56 -68q-14 -14 -29 -27t-30 -25h385l-1 -196h-301
q-70 0 -136.5 6t-119.5 13.5t-87 14t-38 7.5q-94 -26 -182 -33.5t-166 -7.5zM641 208q99 -11 206 -11h11q101 0 202.5 18t195.5 59t166 115q19 19 37 44.5t30.5 54t18.5 58.5q3 16 3 31q0 13 -2 25q-8 43 -33 70t-59 42t-73 19q-17 1 -33 1q-21 0 -42 -2
q-102 -16 -222 -99.5t-255 -233.5zM1484 1404l-163 -163l-164 164l163 163z" />
    <glyph glyph-name="uni0638.init" unicode="&#x638;" horiz-adv-x="1576" arabic-form="initial" 
d="M378 196h96q75 0 158.5 1.5t172 18t179.5 54.5t181 112q57 48 79 104q15 37 15 75q0 19 -4 38q-8 40 -33 68t-59.5 44.5t-74.5 20.5q-13 1 -26 1q-26 0 -51 -5q-103 -23 -222.5 -105t-255.5 -231q-25 -27 -46.5 -53t-108.5 -143zM-20 196h168q14 22 47.5 80.5
t100.5 143.5q11 64 16.5 157t6.5 221v36q0 107 -5.5 217t-17.5 228q-11 118 -17 175.5t-6 58.5l202 36q47 -349 47 -734q0 -76 -2 -153q243 225 460 262q45 7 89 7q55 0 129 -15.5t150 -89.5q45 -45 70 -97.5t30 -118.5q1 -13 1 -27q0 -41 -10.5 -89t-32 -97t-49 -90
t-55.5 -68q-86 -83 -178.5 -130.5t-184.5 -71.5t-179 -30.5t-162 -6.5h-618v196zM1251 1404l-163 -163l-164 164l163 163z" />
    <glyph glyph-name="uni0638.medi" unicode="&#x638;" horiz-adv-x="1583" arabic-form="medial" 
d="M378 196h96q75 0 160 3t175 20.5t180.5 55t175.5 107.5q57 47 79 104q15 37 15 75q0 19 -4 38q-8 40 -33 68t-59.5 44.5t-74.5 20.5q-13 1 -26 1q-26 0 -51 -5q-103 -23 -222.5 -105t-255.5 -231q-25 -27 -46.5 -53t-108.5 -143zM-20 196h168q14 22 47.5 80.5
t100.5 143.5q11 64 16.5 157t6.5 221v36q0 107 -5.5 217t-17.5 228q-11 118 -17 175.5t-6 58.5l202 36q47 -349 47 -734q0 -76 -2 -153q243 225 460 262q45 7 89 7q55 0 129 -15.5t150 -89.5q45 -45 70 -97.5t30 -118.5q1 -13 1 -27q0 -41 -10.5 -89t-32 -97t-49 -90
t-55.5 -68q-24 -24 -49 -43h350l-1 -196h-262q-73 0 -140.5 6.5t-120 14t-85.5 14t-36 7.5q-97 -28 -189 -35t-171 -7h-618v196zM1251 1404l-163 -163l-164 164l163 163z" />
    <glyph glyph-name="uni0639.fina" unicode="&#x639;" horiz-adv-x="1357" arabic-form="final" 
d="M828 -595q54 2 110.5 10t112 23t107.5 38t97 55l102 -170q-73 -44 -135 -73.5t-124 -47.5t-129 -25.5t-150 -7.5q-91 0 -180 16t-169 47.5t-148.5 79t-118.5 111t-78.5 142t-29.5 173.5v6q0 110 36.5 203t100 168t148.5 131.5t179 96.5l-263 269l-12 122q32 49 78 84.5
t95.5 60.5t97.5 40.5t84 24.5q112 24 221 24q108 0 194 -29q106 -32 161 -97q51 -62 51 -144v-9q-5 -173 -156 -293q-77 -60 -166 -101q97 -60 201 -98.5t211 -38.5h21v-196h-20q-87 0 -167.5 17.5t-157 49.5t-151.5 76t-151 98q-77 -30 -155 -70t-141 -94t-103 -123.5
t-40 -159.5q0 -66 23.5 -121t63.5 -98t93 -75t113 -53t122.5 -31.5t121.5 -10.5zM504 716q51 -52 114 -117t142 -131q75 31 131.5 60.5t95 60.5t59 66t22.5 77q0 10 -6.5 19t-17 16.5t-23.5 13t-25 9.5q-56 17 -123 19h-12q-61 0 -125.5 -10t-126 -31.5t-105.5 -51.5z" />
    <glyph glyph-name="uni0639.init" unicode="&#x639;" horiz-adv-x="1138" arabic-form="initial" 
d="M876 604q-31 28 -61 52.5t-64.5 43t-75.5 29t-92 10.5q-58 0 -102 -19.5t-73.5 -52.5t-44.5 -75.5t-15 -88.5q0 -63 28 -114t74.5 -87t107.5 -54q50 -15 104 -15q12 0 24 1q46 3 84.5 7t74 9t70 12t73.5 15l24 -190q-56 -15 -127.5 -30t-167 -27.5t-218.5 -20t-281 -7.5
l-238 -2v196l304 3q-73 66 -102.5 140t-29.5 164q0 88 32.5 166.5t90.5 137.5t136.5 93.5t171.5 34.5q71 0 128 -14t106 -38.5t93 -57.5t89 -70z" />
    <glyph glyph-name="uni0639.medi" unicode="&#x639;" horiz-adv-x="1144" arabic-form="medial" 
d="M1164 0h-20q-160 0 -296 28t-246 94q-63 -30 -137.5 -52.5t-153.5 -38t-158.5 -23.5t-152.5 -8h-20v196h21q51 0 108.5 4.5t114 13t106.5 20t86 25.5q-39 36 -79 79.5t-80.5 91t-82 97t-83.5 97.5l10 139q51 46 106.5 77t109.5 50.5t105 30t93 14.5q47 5 93 5
q54 0 128 -10t155 -44q53 -24 86 -52t51 -55t24.5 -52t6.5 -43q1 -10 1 -20q0 -39 -19.5 -92t-59 -113.5t-90.5 -116t-103 -94.5q69 -26 161.5 -39t194.5 -13h20v-196zM604 357q28 15 58 39.5t58.5 54t54 62t44.5 62.5t30.5 55.5t11.5 42.5q-52 34 -120 52t-142 18t-149 -18
t-139 -55q83 -101 152 -178t141 -135z" />
    <glyph glyph-name="uni063A.fina" unicode="&#x63a;" horiz-adv-x="1357" arabic-form="final" 
d="M828 -595q54 2 110.5 10t112 23t107.5 38t97 55l102 -170q-73 -44 -135 -73.5t-124 -47.5t-129 -25.5t-150 -7.5q-91 0 -180 16t-169 47.5t-148.5 79t-118.5 111t-78.5 142t-29.5 173.5v6q0 110 36.5 203t100 168t148.5 131.5t179 96.5l-263 269l-12 122q32 49 78 84.5
t95.5 60.5t97.5 40.5t84 24.5q112 24 221 24q108 0 194 -29q106 -32 161 -97q51 -62 51 -144v-9q-5 -173 -156 -293q-77 -60 -166 -101q97 -60 201 -98.5t211 -38.5h21v-196h-20q-87 0 -167.5 17.5t-157 49.5t-151.5 76t-151 98q-77 -30 -155 -70t-141 -94t-103 -123.5
t-40 -159.5q0 -66 23.5 -121t63.5 -98t93 -75t113 -53t122.5 -31.5t121.5 -10.5zM504 716q51 -52 114 -117t142 -131q75 31 131.5 60.5t95 60.5t59 66t22.5 77q0 10 -6.5 19t-17 16.5t-23.5 13t-25 9.5q-56 17 -123 19h-12q-61 0 -125.5 -10t-126 -31.5t-105.5 -51.5z
M994 1401l-163 -163l-164 164l163 163z" />
    <glyph glyph-name="uni063A.init" unicode="&#x63a;" horiz-adv-x="1138" arabic-form="initial" 
d="M876 604q-31 28 -61 52.5t-64.5 43t-75.5 29t-92 10.5q-58 0 -102 -19.5t-73.5 -52.5t-44.5 -75.5t-15 -88.5q0 -63 28 -114t74.5 -87t107.5 -54q50 -15 104 -15q12 0 24 1q46 3 84.5 7t74 9t70 12t73.5 15l24 -190q-56 -15 -127.5 -30t-167 -27.5t-218.5 -20t-281 -7.5
l-238 -2v196l304 3q-73 66 -102.5 140t-29.5 164q0 88 32.5 166.5t90.5 137.5t136.5 93.5t171.5 34.5q71 0 128 -14t106 -38.5t93 -57.5t89 -70zM755 1311l-163 -163l-164 164l163 163z" />
    <glyph glyph-name="uni063A.medi" unicode="&#x63a;" horiz-adv-x="1144" arabic-form="medial" 
d="M1164 0h-20q-160 0 -296 28t-246 94q-63 -30 -137.5 -52.5t-153.5 -38t-158.5 -23.5t-152.5 -8h-20v196h21q51 0 108.5 4.5t114 13t106.5 20t86 25.5q-39 36 -79 79.5t-80.5 91t-82 97t-83.5 97.5l10 139q51 46 106.5 77t109.5 50.5t105 30t93 14.5q47 5 93 5
q54 0 128 -10t155 -44q53 -24 86 -52t51 -55t24.5 -52t6.5 -43q1 -10 1 -20q0 -39 -19.5 -92t-59 -113.5t-90.5 -116t-103 -94.5q69 -26 161.5 -39t194.5 -13h20v-196zM604 357q28 15 58 39.5t58.5 54t54 62t44.5 62.5t30.5 55.5t11.5 42.5q-52 34 -120 52t-142 18t-149 -18
t-139 -55q83 -101 152 -178t141 -135zM782 1310l-163 -163l-164 164l163 163z" />
    <glyph glyph-name="uni0641.fina" unicode="&#x641;" horiz-adv-x="2106" arabic-form="final" 
d="M1857 220q61 -11 127.5 -17.5t141.5 -6.5v-196q-65 0 -130 4.5t-127.5 13.5t-121.5 22.5t-110 31.5l-59 -20q-50 -18 -118.5 -32t-149.5 -23t-170 -14t-179 -5q-308 1 -508 76t-291 229q-40 67 -54 137q-12 60 -12 118q0 9 0.5 45.5t14 95.5t29.5 103.5t29 72t15 31.5
l174 -95q0 -1 -9 -19.5t-20.5 -50t-22 -72.5t-12.5 -86q-1 -12 -1 -25q0 -33 6.5 -73.5t32.5 -82.5q30 -50 77.5 -88t117 -63.5t163 -39.5t215.5 -17q56 -2 104 -2q32 0 82 1t106 5.5t101 11.5t84 15q-137 113 -137 264q0 94 28.5 176.5t82.5 151.5q54 67 122.5 104
t144.5 37q69 0 128 -24t105 -75q18 -19 37 -46t34 -64t25 -85t10 -108q0 -45 -6 -89.5t-18.5 -85.5t-32.5 -77t-48 -64zM1629 286q43 25 69.5 54t40.5 61t19 66t5 69q0 72 -17.5 112.5t-40.5 60.5t-46.5 25t-35.5 5q-28 0 -59.5 -19t-58 -54t-44 -85t-17.5 -112
q0 -23 13.5 -50t38 -52.5t58.5 -47t75 -33.5zM1790 1349l-163 -163l-164 164l163 163z" />
    <glyph glyph-name="uni0641.init" unicode="&#x641;" horiz-adv-x="932" arabic-form="initial" 
d="M428 927q-14 0 -33 -13.5t-38 -40.5t-35.5 -66t-25.5 -90q-3 -19 -3 -36q0 -22 6.5 -46t29 -44t58 -30t80.5 -13q51 -2 96 -2q44 0 77 2q-7 97 -37.5 183t-81.5 143q-16 18 -40.5 35.5t-52.5 17.5zM-20 196h20q110 0 203.5 10.5t167 27t124.5 36.5t75 40q13 11 21 20
l16 18h-101q-54 0 -105 8.5t-96 25.5t-82 42.5t-63 58.5q-14 18 -28 43.5t-23 58.5t-11 75v17q0 34 6 75q28 152 107 254q45 60 101 89.5t116 29.5q132 0 240 -117q46 -51 82 -118.5t58.5 -144t30.5 -157.5q3 -35 3 -69q0 -47 -6 -93q-12 -91 -50 -158t-96.5 -114
t-134 -76.5t-163 -46.5t-183.5 -23.5t-195 -7.5h-34v196zM583 1479l-163 -163l-164 164l163 163z" />
    <glyph glyph-name="uni0641.medi" unicode="&#x641;" horiz-adv-x="1001" arabic-form="medial" 
d="M501 741q-27 0 -58.5 -19.5t-58.5 -55t-44.5 -86t-17.5 -111.5q0 -24 13.5 -51t38 -52.5t59.5 -47t77 -32.5q58 27 89.5 71t41.5 95q6 28 6 56q0 23 -6 60t-26.5 78.5t-50.5 68t-63 26.5zM-20 196h20q75 0 143 5t113 10q-130 114 -130 258q0 94 28.5 177t82.5 152
t124 106q64 34 131 34h11q89 -4 156 -42t111.5 -98t65.5 -135q18 -66 18 -135q0 -9 -2 -53.5t-30.5 -120t-82.5 -134.5q27 -6 59.5 -10t67 -7t69.5 -5t67 -2h19v-196h-20q-125 0 -247 16.5t-237 54.5q-94 -36 -229 -53.5t-288 -17.5h-20v196zM656 1329l-163 -163l-164 164
l163 163z" />
    <glyph glyph-name="uni0642.fina" unicode="&#x642;" horiz-adv-x="1570" arabic-form="final" 
d="M1062 1q-109 2 -191 39.5t-131 103.5q-33 37 -49 84t-18 100q-1 13 -1 26q0 40 8 87t25 98.5t40.5 96.5t50.5 79q49 63 109 96t124 33q72 0 136.5 -32.5t124.5 -96.5q42 -47 74 -106t55 -125.5t36 -139.5t17 -148h118v-196h-125q-18 -128 -71 -243.5t-141 -203.5
t-210 -140t-278 -52h-2q-91 0 -177 17.5t-161.5 54.5t-139 93t-108.5 133q-52 85 -74 186q-17 72 -17 151q0 32 3 64q8 118 46.5 238t107.5 249l175 -94q-55 -102 -87.5 -199.5t-41.5 -185.5q-4 -37 -4 -72q0 -49 11 -110.5t49 -125.5q30 -49 74.5 -86.5t100 -63t121 -38.5
t137.5 -13q75 0 140 19.5t119 52.5t96 77t71 93t44.5 99.5t17.5 97.5zM1029 645q-36 0 -78 -52q-13 -16 -26.5 -40.5t-25 -54t-19 -62t-9.5 -63.5v-15q0 -23 4.5 -47.5t19.5 -44.5t38 -32t48.5 -19t50 -10.5t42.5 -4.5q63 -5 116 -5q52 0 90 3q-3 64 -15 121t-30.5 106
t-42 88.5t-48.5 68.5q-21 22 -50.5 42.5t-64.5 20.5zM997 1213l-162 -162l-164 163l162 163zM1407 1212l-162 -163l-164 164l162 162z" />
    <glyph glyph-name="uni0642.init" unicode="&#x642;" horiz-adv-x="932" arabic-form="initial" 
d="M428 927q-14 0 -33 -13.5t-38 -40.5t-35.5 -66t-25.5 -90q-3 -19 -3 -36q0 -22 6.5 -46t29 -44t58 -30t80.5 -13q51 -2 96 -2q44 0 77 2q-7 97 -37.5 183t-81.5 143q-16 18 -40.5 35.5t-52.5 17.5zM-20 196h20q110 0 203.5 10.5t167 27t124.5 36.5t75 40q13 11 21 20
l16 18h-101q-54 0 -105 8.5t-96 25.5t-82 42.5t-63 58.5q-14 18 -28 43.5t-23 58.5t-11 75v17q0 34 6 75q28 152 107 254q45 60 101 89.5t116 29.5q132 0 240 -117q46 -51 82 -118.5t58.5 -144t30.5 -157.5q3 -35 3 -69q0 -47 -6 -93q-12 -91 -50 -158t-96.5 -114
t-134 -76.5t-163 -46.5t-183.5 -23.5t-195 -7.5h-34v196zM380 1453l-162 -162l-164 163l162 163zM790 1452l-162 -163l-164 164l162 162z" />
    <glyph glyph-name="uni0642.medi" unicode="&#x642;" horiz-adv-x="1001" arabic-form="medial" 
d="M501 741q-27 0 -58.5 -19.5t-58.5 -55t-44.5 -86t-17.5 -111.5q0 -24 13.5 -51t38 -52.5t59.5 -47t77 -32.5q58 27 89.5 71t41.5 95q6 28 6 56q0 23 -6 60t-26.5 78.5t-50.5 68t-63 26.5zM-20 196h20q75 0 143 5t113 10q-130 114 -130 258q0 94 28.5 177t82.5 152
t124 106q64 34 131 34h11q89 -4 156 -42t111.5 -98t65.5 -135q18 -66 18 -135q0 -9 -2 -53.5t-30.5 -120t-82.5 -134.5q27 -6 59.5 -10t67 -7t69.5 -5t67 -2h19v-196h-20q-125 0 -247 16.5t-237 54.5q-94 -36 -229 -53.5t-288 -17.5h-20v196zM452 1285l-162 -162l-164 163
l162 163zM862 1284l-162 -163l-164 164l162 162z" />
    <glyph glyph-name="uni0643.fina" unicode="&#x643;" horiz-adv-x="2076" arabic-form="final" 
d="M1909 284q10 -20 23 -36.5t32 -28t46 -17.5t66 -6h20v-196h-20q-118 0 -203 47q-87 51 -136 145q-81 -82 -211 -133q-112 -43 -253.5 -65t-319.5 -22q-360 4 -575 84q-207 79 -280 229q-42 81 -42 176t39 198q14 36 28.5 66t27.5 52t22 35.5l11 16.5l159 -118
q-20 -28 -36 -59.5t-29 -66.5q-24 -66 -24 -121q0 -49 20 -89q49 -98 224 -150.5t455 -53.5q320 0 500 71q136 56 182 143q15 27 20.5 56.5t6.5 58.5q-2 60 -10 169.5t-15 261.5q-4 110 -9.5 205.5t-11 167.5t-9.5 116.5t-5 53.5l196 21q1 -16 5.5 -63.5t10 -120.5
t11.5 -168t11 -205q1 -38 4 -74t6 -79.5t6 -98t5 -129.5q5 -97 17.5 -163.5t34.5 -109.5zM1074 966l-27 6q-14 2 -30 4.5t-32.5 3t-33 -2t-31.5 -8.5q-20 -9 -35.5 -23.5t-25 -33.5t-10.5 -40v-8q0 -17 7 -34q9 -22 26.5 -40t41 -29.5t50.5 -13.5h9q21 0 43 8q40 16 71 33
t68 42l59 -78q-23 -16 -47.5 -31t-53.5 -32t-64 -36t-77 -43l-227 -126l-48 87l179 100q-42 17 -73 49t-48 71q-14 35 -14 71q0 4 0.5 26.5t17 59t46.5 65.5t69 45q42 18 90 18t90 -9l38 -9z" />
    <glyph glyph-name="uni0643.init" unicode="&#x643;" horiz-adv-x="1023" arabic-form="initial" 
d="M-20 196h125q60 0 125 1.5t124 12t108 33t77 64.5q33 51 39 110q1 13 1 26q0 47 -14 101q-11 41 -54.5 104.5t-107.5 136t-143 148.5t-161 142l23 205l822 352l77 -182l-716 -301q49 -42 107 -94t115 -115q76 -84 125 -160.5t76 -145.5t36 -130q6 -40 6 -76
q0 -21 -3.5 -57.5t-19 -82.5t-36.5 -84q-89 -158 -301 -197q-35 -7 -87 -7h-343v196z" />
    <glyph glyph-name="uni0643.medi" unicode="&#x643;" horiz-adv-x="1188" arabic-form="medial" 
d="M-20 196h349q40 0 80.5 16t73 43t54 61.5t24.5 70.5q1 12 1 24q0 46 -17.5 102t-53.5 120t-84 126.5t-100.5 119t-105.5 104.5t-98 83l26 221l884 381l77 -182l-793 -333q75 -61 133 -122.5t104 -123.5t82.5 -124t70 -124t66.5 -125t71 -127q29 -48 61.5 -86.5
t71.5 -65.5t85.5 -42.5t102.5 -16.5h63v-196h-29q-72 0 -126.5 9t-106.5 26q-72 26 -131.5 76t-104.5 108q-33 -63 -86 -112q-33 -29 -69.5 -49t-75.5 -32t-80 -18t-83 -8h-336v196z" />
    <glyph glyph-name="uni0644.fina" unicode="&#x644;" horiz-adv-x="1532" arabic-form="final" 
d="M390 339q-14 -22 -27.5 -48.5t-24.5 -57.5q-20 -54 -36.5 -131.5t-16.5 -183.5q0 -66 17.5 -119.5t47 -94.5t68 -71t79.5 -49.5t81.5 -30t75.5 -12.5q13 -1 25 -1q39 0 87.5 7.5t102.5 28.5t103 56t86.5 85.5t60 117t22.5 151.5q0 79 -2.5 187t-6 231t-8.5 253.5
t-10 254.5q-5 146 -11.5 297.5t-14.5 311.5l196 8q8 -161 14.5 -313.5t11.5 -299.5q5 -123 9.5 -250.5t8.5 -249.5q1 -42 13.5 -81.5t37.5 -70.5t62.5 -49.5t90.5 -18.5h20v-196h-20q-69 0 -113.5 11.5t-81.5 32.5v-58q0 -126 -32 -223.5t-85.5 -170t-123 -121.5
t-145.5 -78.5t-153 -40.5q-56 -8 -108 -8q-18 0 -36 1q-61 3 -126.5 19t-128.5 46t-119.5 75.5t-99.5 108.5t-67 144q-24 77 -24 172v8q1 130 20 223t42 156q26 73 60 122z" />
    <glyph glyph-name="uni0644.init" unicode="&#x644;" horiz-adv-x="569" arabic-form="initial" 
d="M-20 196h76q113 0 161 48q51 52 51 195v11q0 65 -5 187.5t-12 302.5q-4 110 -9.5 205.5t-11 167.5t-9.5 116.5t-5 53.5l196 21q1 -16 5.5 -63.5t10 -120.5t11.5 -168t11 -205q3 -99 6 -176.5t5 -137.5t3.5 -104t1.5 -77v-26q0 -27 -2 -64t-13.5 -83t-33 -91t-58.5 -83
q-105 -105 -303 -105h-76v196z" />
    <glyph glyph-name="uni0644.medi" unicode="&#x644;" horiz-adv-x="649" arabic-form="medial" 
d="M-20 196h102q30 1 51 3t35.5 5t24 7.5t17.5 10.5q15 11 24.5 29.5t15.5 41.5t8.5 48.5t4.5 51.5q0 2 1 40.5t2 102.5t2 148.5t2 177t0.5 188.5t-2.5 184t-5.5 162t-9.5 123l195 25q7 -51 11.5 -126t6.5 -162.5t2.5 -183t0 -188.5t-1.5 -178.5t-2 -152.5t-2 -110.5
t-1 -53.5q0 -23 5.5 -56.5t25.5 -65.5q19 -30 53.5 -50t100.5 -21h22v-196h-32q-43 0 -83 8t-74.5 22t-62 33t-46.5 40q-25 -33 -58.5 -53t-70 -31t-72.5 -15t-65 -4h-125v196z" />
    <glyph glyph-name="uni0645.fina" unicode="&#x645;" horiz-adv-x="1244" arabic-form="final" 
d="M141 -751l-37 927q0 6 0.5 28t7.5 50t24 59t49 55q13 10 31.5 19.5t42.5 14.5q19 3 42 3q6 0 23.5 -0.5t53.5 -10.5q16 45 38 95t49.5 98t61 91.5t74 75.5t87.5 51q41 16 89 16h11q81 -3 147 -35.5t114 -95.5q24 -32 41.5 -72t28.5 -85t15 -92q2 -24 2 -48q0 -23 -2 -47
q3 -15 10.5 -40.5t21 -50t33 -42t45.5 -17.5h20v-196h-20q-59 1 -112.5 25.5t-90.5 68.5q-25 -29 -55.5 -50t-68.5 -32q-12 -2 -26 -2q-17 0 -43.5 4t-70.5 17.5t-99.5 35t-127.5 50.5l-246 91q-1 -2 -1 -9t0.5 -35t2.5 -86.5t6 -164t10 -267.5t15 -397h-196zM626 300
q46 -20 89.5 -36.5t81.5 -30.5t69.5 -22t38.5 -9q15 24 24.5 59.5t13.5 75.5q3 26 3 52q0 13 -2 38.5t-11 54.5q-15 51 -36.5 79.5t-43.5 42.5t-41.5 17t-30.5 3h-2q-34 0 -76 -44.5t-84 -125.5q-18 -33 -31.5 -66.5t-24.5 -61.5z" />
    <glyph glyph-name="uni0645.init" unicode="&#x645;" horiz-adv-x="1165" arabic-form="initial" 
d="M0 196q89 0 148 27.5t100.5 73t72 104t61.5 120.5q27 56 57.5 110.5t69 97t88 69t115.5 26.5q79 0 139.5 -31.5t103.5 -82.5t68.5 -116t35.5 -132q5 -34 5 -70q0 -32 -6 -84t-32 -114.5t-71 -109t-110 -64.5q-41 -11 -82 -11q-20 0 -61.5 5t-100 27.5t-112.5 55
t-100 66.5q-39 -53 -81.5 -85t-90.5 -49t-102 -23t-115 -6h-20v196h20zM504 325q91 -67 166 -97q50 -20 90 -20q19 0 35 4q17 4 33 23t27.5 49t16.5 69q2 16 2 32q0 25 -4 52q-1 7 -5 24t-11.5 38t-19.5 43.5t-29 41t-40 30.5t-53 12q-20 0 -37.5 -11.5t-35 -35.5t-37 -60
t-44.5 -85z" />
    <glyph glyph-name="uni0645.medi" unicode="&#x645;" horiz-adv-x="1178" arabic-form="medial" 
d="M1198 196v-196h-24q-74 0 -131.5 24.5t-95.5 74.5q-72 -95 -175 -95q-16 0 -33 2q-200 25 -387 156q-26 -41 -84 -81q-114 -81 -268 -81h-20v196h21q140 1 248 145q35 48 73 121q31 61 49 97.5t28 56t14.5 27l7.5 12.5q43 74 105.5 120.5t150.5 46.5q61 0 110.5 -20
t88.5 -55t67.5 -81.5t48 -98.5t29 -108t11.5 -109q1 -31 11 -59t28 -49t44 -33.5t59 -12.5h24zM716 202q18 -3 33 -3q55 0 81 38q14 20 21 48q5 22 5 49v16q-2 48 -13.5 97t-33 88.5t-54.5 64.5t-78 25q-53 0 -114 -112q-30 -62 -48 -98.5t-27.5 -56t-13 -26.5l-5.5 -11
q75 -51 136.5 -80t110.5 -39z" />
    <glyph glyph-name="uni0646.fina" unicode="&#x646;" horiz-adv-x="1709" arabic-form="final" 
d="M67 -171q-9 63 -9 125q0 38 6 106.5t31.5 161.5t63 176.5t78.5 151.5l159 -117q-13 -18 -30 -51.5t-34.5 -78.5t-33.5 -98.5t-26.5 -111.5t-13.5 -118q-1 -17 -1 -33q0 -44 6 -85q4 -26 15.5 -62t34.5 -74.5t58 -75.5t84.5 -66.5t116 -48t151.5 -18.5q106 0 192 20
t151 58.5t109 94t66 125.5q27 86 29 173v12q0 81 -13 158t-36.5 146.5t-46.5 121t-40.5 81t-18.5 29.5l166 106q3 -5 24 -40.5t49 -95.5q55 -104 104 -165t93 -92t83.5 -39.5t74.5 -8.5h22v-196h-22q-135 0 -241 61q1 -23 1 -46q0 -53 -7.5 -119t-33.5 -146
q-38 -113 -106.5 -195t-159.5 -135.5t-201.5 -79.5t-233.5 -26q-128 0 -239.5 31.5t-198.5 95t-144.5 160.5t-77.5 228zM931 646l-163 -163l-164 164l163 163z" />
    <glyph glyph-name="uni0646.init" unicode="&#x646;" horiz-adv-x="715" arabic-form="initial" 
d="M-20 196h116q58 0 107 2.5t89 14.5t70 35.5t50 65.5q10 21 15 53q3 21 3 45q0 13 -2 39.5t-13 73t-32 97.5l-87 214l178 88q0 -1 9 -20.5t23.5 -52.5t31.5 -76.5t32 -92.5q45 -145 52 -256q1 -16 1 -32q0 -91 -30 -160q-30 -68 -73.5 -113t-100.5 -72t-127.5 -38
t-152.5 -11h-159v196zM462 1254l-163 -163l-164 164l163 163z" />
    <glyph glyph-name="uni0646.medi" unicode="&#x646;" horiz-adv-x="705" arabic-form="medial" 
d="M725 196v-196h-20q-101 0 -168 34.5t-110 89.5q-63 -63 -163 -93.5t-247 -30.5h-37v196h37q168 0 244 60.5t76 179.5q0 57 -8.5 116t-30.5 135l188 53q10 -35 17 -67.5t12 -68.5t9.5 -78t8.5 -95q3 -37 11 -78t26.5 -76t51 -58t83.5 -23h20zM461 1085l-163 -163l-164 164
l163 163z" />
    <glyph glyph-name="uni0647.fina" unicode="&#x647;" horiz-adv-x="1090" arabic-form="final" 
d="M1109 196v-196h-20q-38 0 -90.5 6.5t-104.5 30.5q-79 37 -132 122q-63 -10 -116.5 -14.5t-102.5 -4.5q-258 0 -359 125q-28 33 -39.5 72t-12.5 76v18q0 27 5 55t14 49q27 56 64.5 103t80 84.5t88 67t88 52t80.5 38t66 25.5q-8 76 -11.5 111.5t-3.5 36.5l196 41v1
q1 -8 4 -36.5t7 -67t8.5 -82t8.5 -81.5t7 -66t4 -35q16 -129 29 -211t23 -131t16 -69.5t9 -26.5q24 -54 64 -73.5t110 -19.5h20zM641 702q-24 -10 -57 -24.5t-68.5 -33t-70 -40.5t-62 -48t-44.5 -55.5t-17 -61.5t20.5 -53t53 -32.5t73.5 -15.5q34 -4 69 -4q7 0 31 0.5
t61.5 4.5t63.5 9q-12 58 -24.5 142t-28.5 212z" />
    <glyph glyph-name="uni0647.init" unicode="&#x647;" horiz-adv-x="1522" arabic-form="initial" 
d="M-20 196h27q60 0 105.5 1t82.5 3t67.5 5t59.5 7q-75 81 -112.5 159.5t-37.5 151.5q0 50 13.5 105.5t42 107t71.5 96t103 73.5l-79 31l95 180l348 -143q93 -41 179.5 -82t160 -82t129.5 -83t87 -84q92 -128 92 -260q0 -99 -51.5 -183.5t-157.5 -141.5l1 1
q-28 -17 -66 -28.5t-79.5 -19t-83.5 -10.5t-77 -3q-88 0 -170.5 13t-167.5 47q-53 -16 -119.5 -27t-139.5 -17.5t-149 -9.5t-147 -3h-27v196zM956 571q0 -42 -12 -91t-33.5 -98.5t-52.5 -97.5t-69 -88q32 -5 53 -6t39 -1q94 0 160 16.5t107.5 44.5t60 65.5t18.5 78.5
q0 35 -18 76t-53.5 82.5t-88.5 81.5t-124 73q11 -38 12 -72t1 -64zM751 579q0 30 -4.5 63.5t-19 64t-41 54t-69.5 32.5q-19 4 -37 4q-34 0 -72 -18t-71.5 -57t-52.5 -88t-19 -94q0 -42 15 -80t40.5 -71.5t59.5 -63t72 -54.5q51 23 88.5 58t62 76.5t36.5 86.5t12 87z" />
    <glyph glyph-name="uni0647.medi" unicode="&#x647;" horiz-adv-x="1035" arabic-form="medial" 
d="M1055 196v-196h-28q-56 -2 -105.5 -27.5t-87.5 -66.5t-61.5 -93.5t-27.5 -107.5q-1 -10 -1 -19q0 -46 17 -96t64 -96l-125 -152q-106 64 -189 140t-146 158t-107 167t-71 168l-9 25h-198v196h161q-1 13 -1 28q0 47 8.5 113.5t30.5 145t55.5 155t79 137t102.5 98.5t125 41
h10q53 0 96.5 -30t76.5 -82t53.5 -118.5t28.5 -133.5q4 -40 4 -77q0 -27 -3.5 -70.5t-21.5 -86.5q-27 -64 -68 -115t-93 -88.5t-113 -62t-128 -35.5q12 -29 31.5 -71t44.5 -84t54.5 -78.5t61.5 -55.5q-1 15 -1 30q0 47 14 99.5t46 104.5t77 95.5t98 74.5t110.5 48.5
t115.5 17.5h20zM542 705q-28 -3 -55.5 -29.5t-52.5 -68t-45 -93.5t-33.5 -106t-18.5 -106q-2 -24 -2 -46q0 -26 3 -48q16 -2 31 -2q48 0 94.5 21.5t84 66t58.5 101.5t21.5 115t-20 110t-65.5 85z" />
    <glyph glyph-name="uni0648.fina" unicode="&#x648;" horiz-adv-x="1043" arabic-form="final" 
d="M78 -509q154 31 276 86t209 124t137.5 146.5t61.5 152.5h-46h-67.5t-98.5 5q-217 13 -321 142q-46 58 -58 134q-7 40 -7 80q0 38 8.5 96.5t39.5 133t73 128.5q51 63 110.5 95.5t123.5 32.5q142 0 261 -128q42 -47 76 -106t58 -126.5t38 -141t16 -149.5h95v-196h-110
q-30 -148 -108.5 -267.5t-190 -208.5t-248 -146t-282.5 -80zM519 650q-29 0 -55 -22.5t-46.5 -57.5t-34.5 -78.5t-19 -85.5q-3 -23 -3 -45q0 -18 3.5 -44.5t20.5 -47.5q15 -20 37.5 -32.5t48 -20t50 -11t42.5 -4.5q50 -3 94 -3q11 0 42.5 0.5t70.5 3.5q-3 64 -15 121
t-31 106t-42.5 88.5t-48.5 68.5q-10 10 -22.5 21.5t-27 21t-30.5 15.5t-34 6z" />
    <glyph glyph-name="uni0649.fina" unicode="&#x649;" horiz-adv-x="1715" arabic-form="final" 
d="M830 -652q-87 0 -180 8.5t-178.5 34.5t-158 73.5t-118.5 125.5q-97 142 -97 361q0 24 1 49q13 272 170 652l183 -74q-157 -386 -157 -629q0 -154 63 -250q41 -59 101.5 -90.5t126 -45.5t130 -16t114.5 -2q29 0 82 4.5t115 15.5t126.5 29.5t116.5 45.5t85.5 64t33.5 86
q0 12 -11 28.5t-35.5 35t-63.5 39.5t-96 42q-35 12 -69.5 22t-64.5 18t-55 13.5t-41 8.5l-22 4l15 195h789v-196h-258q34 -28 55.5 -56.5t33.5 -55.5t16 -52t4 -46q-1 -85 -39 -151t-100 -115t-141 -82.5t-162.5 -54.5t-165.5 -30t-148 -9z" />
    <glyph glyph-name="uni064A.fina" unicode="&#x64a;" horiz-adv-x="1715" arabic-form="final" 
d="M830 -652q-87 0 -180 8.5t-178.5 34.5t-158 73.5t-118.5 125.5q-97 142 -97 361q0 24 1 49q13 272 170 652l183 -74q-157 -386 -157 -629q0 -154 63 -250q41 -59 101.5 -90.5t126 -45.5t130 -16t114.5 -2q29 0 82 4.5t115 15.5t126.5 29.5t116.5 45.5t85.5 64t33.5 86
q0 12 -11 28.5t-35.5 35t-63.5 39.5t-96 42q-35 12 -69.5 22t-64.5 18t-55 13.5t-41 8.5l-22 4l15 195h789v-196h-258q34 -28 55.5 -56.5t33.5 -55.5t16 -52t4 -46q-1 -85 -39 -151t-100 -115t-141 -82.5t-162.5 -54.5t-165.5 -30t-148 -9zM756 -958l-162 -162l-164 163
l162 163zM1166 -959l-162 -163l-164 164l162 162z" />
    <glyph glyph-name="uni064A.init" unicode="&#x64a;" horiz-adv-x="838" arabic-form="initial" 
d="M-20 196h193q58 0 113 2.5t102 14.5t83 35.5t56 65.5q10 21 15 53q3 21 3 45q0 13 -2 39.5t-13 73t-32 97.5l-87 214l178 88q0 -1 9 -20.5t23.5 -52.5t31.5 -76.5t32 -92.5q45 -145 52 -256q1 -16 1 -32q0 -91 -30 -160q-30 -68 -79.5 -113t-113.5 -72t-140.5 -38
t-158.5 -11h-236v196zM326 -327l-162 -162l-164 163l162 163zM736 -328l-162 -163l-164 164l162 162z" />
    <glyph glyph-name="uni064A.medi" unicode="&#x64a;" horiz-adv-x="852" arabic-form="medial" 
d="M872 196v-196h-20q-101 0 -168 34.5t-110 89.5q-32 -31 -70 -54.5t-90 -39t-121.5 -23t-163.5 -7.5h-149v196h149q95 0 162.5 15t110 45t62.5 75t20 105q0 57 -8.5 116t-30.5 135l188 53q10 -35 17 -67.5t12 -68.5t9.5 -78t8.5 -95q3 -37 11 -78t26.5 -76t51 -58
t83.5 -23h20zM340 -327l-162 -162l-164 163l162 163zM750 -328l-162 -163l-164 164l162 162z" />
    <glyph glyph-name=".notdef" horiz-adv-x="1229" 
d="M102 -362v1806h1024v-1806h-1024zM217 -248h795v1577h-795v-1577z" />
    <glyph glyph-name=".null" 
 />
    <glyph glyph-name="nonmarkingreturn" horiz-adv-x="602" 
 />
    <glyph glyph-name="NULL" unicode="&#xfeff;" 
 />
    <glyph glyph-name="NULL" 
 />
    <glyph glyph-name="space" unicode=" " horiz-adv-x="696" 
 />
    <glyph glyph-name="space" unicode="&#xa0;" horiz-adv-x="696" 
 />
    <glyph glyph-name="exclam" unicode="!" horiz-adv-x="579" 
d="M215 461l-38 872v304h231v-304l-26 -872h-167zM448 155l-163 -163l-155 155l162 164z" />
    <glyph glyph-name="quotedbl" unicode="&#x22;" horiz-adv-x="736" 
d="M311 1572l-34 -402h-124l1 555h157v-153zM614 1572l-33 -402h-125l1 555h157v-153z" />
    <glyph glyph-name="numbersign" unicode="#" horiz-adv-x="1416" 
d="M859 460h-296l-90 -460h-161l90 460h-268v154h297l78 398h-290v156h320l92 467h161l-92 -467h296l92 467h162l-92 -467h229v-156h-259l-78 -398h253v-154h-282l-90 -460h-162zM592 614h296l78 398h-297z" />
    <glyph glyph-name="dollar" unicode="$" horiz-adv-x="1292" 
d="M961 421q0 103 -72.5 174t-243.5 128q-240 73 -349.5 190.5t-109.5 298.5q0 184 107.5 302t294.5 140v246h168v-247q188 -26 293 -158.5t105 -362.5h-206q0 158 -75.5 251.5t-203.5 93.5q-133 0 -204 -69t-71 -193q0 -114 75 -182t246 -123.5t267 -122.5t141.5 -156
t45.5 -208q0 -189 -114 -305t-319 -137v-215h-167v215q-209 19 -327 148.5t-118 352.5h207q0 -156 82 -240.5t233 -84.5q147 0 231 71t84 193z" />
    <glyph glyph-name="percent" unicode="%" horiz-adv-x="1685" 
d="M118 1321q0 147 93.5 242.5t241.5 95.5q149 0 241.5 -96t92.5 -249v-80q0 -148 -93.5 -242t-238.5 -94q-146 0 -241.5 94t-95.5 250v79zM273 1234q0 -87 49.5 -144t132.5 -57q80 0 128.5 55t48.5 151v82q0 87 -48 144.5t-131 57.5q-84 0 -132 -57.5t-48 -149.5v-82z
M914 401q0 147 94 242t241 95t241.5 -94.5t94.5 -250.5v-80q0 -147 -94 -242t-240 -95t-241.5 94t-95.5 250v81zM1069 313q0 -88 49.5 -145t132.5 -57q81 0 129.5 55.5t48.5 151.5v83q0 89 -49 145t-131 56q-80 0 -130 -55.5t-50 -150.5v-83zM502 124l-118 74l799 1278
l117 -74z" />
    <glyph glyph-name="ampersand" unicode="&#x26;" horiz-adv-x="1430" 
d="M113 439q0 118 66 217t251 230q-109 133 -146 213.5t-37 160.5q0 186 110 292t299 106q168 0 278 -98.5t110 -247.5q0 -99 -50 -182.5t-174 -176.5l-120 -88l364 -435q76 146 76 325h187q0 -287 -138 -475l234 -280h-249l-109 129q-83 -74 -195 -112.5t-228 -38.5
q-239 0 -384 126.5t-145 334.5zM642 147q165 0 302 126l-398 477l-37 -27q-188 -138 -188 -284q0 -132 86 -212t235 -80zM455 1267q0 -108 132 -270l133 93q76 54 104 103t28 119q0 75 -56 125t-141 50q-92 0 -146 -62.5t-54 -157.5z" />
    <glyph glyph-name="quotesingle" unicode="'" horiz-adv-x="401" 
d="M284 1600l-23 -413h-145l1 538h167v-125z" />
    <glyph glyph-name="parenleft" unicode="(" horiz-adv-x="886" 
d="M254 1300q164 340 458 535q10 -18 23 -38l22 -36l23 -36q12 -21 23 -39q-245 -206 -364 -457q-131 -273 -136 -644q0 -622 500 -1089l-103 -156q-280 221 -439 541q-165 335 -165 713q0 379 158 706z" />
    <glyph glyph-name="parenright" unicode=")" horiz-adv-x="893" 
d="M623 -119q-158 -320 -438 -541l-26 40l-25 39q-31 48 -52 77q500 467 500 1089q-5 371 -136 644q-119 251 -364 457q11 18 23 39l23 36q29 48 45 74q291 -196 456 -537q160 -330 160 -704q0 -378 -166 -713z" />
    <glyph glyph-name="asterisk" unicode="*" horiz-adv-x="991" 
d="M371 1104l-340 101l52 170l339 -126l-10 386h172l-11 -392l333 124l52 -171l-345 -102l223 -304l-140 -106l-209 323l-202 -315l-140 102z" />
    <glyph glyph-name="plus" unicode="+" horiz-adv-x="1304" 
d="M752 877h456v-196h-456v-517h-208v517h-456v196h456v477h208v-477z" />
    <glyph glyph-name="comma" unicode="," horiz-adv-x="451" 
d="M150 -326l-117 81q105 147 110 303v188h203v-163q0 -113 -55.5 -226.5t-140.5 -182.5z" />
    <glyph glyph-name="hyphen" unicode="-" horiz-adv-x="635" 
d="M590 610h-548v169h548v-169z" />
    <glyph glyph-name="period" unicode="." horiz-adv-x="652" 
d="M213 217q35 37 99 37q65 0 101 -37q34 -35 34 -93q0 -54 -34 -88q-37 -36 -101 -36t-99 36q-33 33 -33 88q0 58 33 93z" />
    <glyph glyph-name="slash" unicode="/" horiz-adv-x="948" 
d="M199 -140h-179l683 1775h177z" />
    <glyph glyph-name="zero" unicode="0" horiz-adv-x="1292" 
d="M1161 697q0 -365 -124.5 -542t-389.5 -177q-262 0 -387.5 173.5t-130.5 517.5v278q0 360 124.5 535.5t391.5 175.5q264 0 388.5 -169t127.5 -522v-270zM953 982q0 263 -74 384t-234 121t-233 -120t-75 -370v-332q0 -265 77 -391.5t233 -126.5q154 0 228.5 119t77.5 375
v341z" />
    <glyph glyph-name="one" unicode="1" horiz-adv-x="1292" 
d="M819 0h-209v1385l-419 -154v189l595 223h33v-1643z" />
    <glyph glyph-name="two" unicode="2" horiz-adv-x="1292" 
d="M1207 0h-1071v149l566 629q126 143 173.5 232t47.5 185q0 128 -77.5 210t-206.5 82q-155 0 -241 -88t-86 -246h-208q0 226 145.5 365.5t389.5 139.5q228 0 360.5 -120t132.5 -318q0 -242 -308 -575l-438 -475h821v-170z" />
    <glyph glyph-name="three" unicode="3" horiz-adv-x="1292" 
d="M438 919h156q147 2 231.5 77t84.5 203q0 288 -287 288q-134 0 -214.5 -77t-80.5 -204h-208q0 194 142 323t361 129q232 0 363 -122.5t131 -340.5q0 -107 -69 -207t-188 -149q135 -43 208.5 -141.5t73.5 -241.5q0 -220 -143.5 -349t-373.5 -129q-231 0 -375 124.5
t-144 328.5h208q0 -129 84.5 -206.5t225.5 -77.5q151 0 230.5 78.5t79.5 225.5q0 143 -87.5 219.5t-252.5 78.5h-156v170z" />
    <glyph glyph-name="four" unicode="4" horiz-adv-x="1292" 
d="M1013 549h227v-169h-227v-380h-209v380h-744v122l732 1133h221v-1086zM295 549h509v802l-25 -45z" />
    <glyph glyph-name="five" unicode="5" horiz-adv-x="1292" 
d="M231 820l83 815h838v-192h-661l-50 -446q121 71 273 71q224 0 355.5 -147.5t131.5 -399.5q0 -253 -136.5 -398t-381.5 -145q-217 0 -354 120t-156 332h196q20 -140 100.5 -211.5t213.5 -71.5q145 0 227.5 99t82.5 273q0 164 -89.5 263.5t-237.5 99.5q-136 0 -213 -60
l-55 -45z" />
    <glyph glyph-name="six" unicode="6" horiz-adv-x="1292" 
d="M951 1636v-176h-38q-243 -5 -386.5 -144t-166.5 -392q130 149 353 149q214 0 341 -150.5t127 -389.5q0 -252 -137.5 -403.5t-368.5 -151.5q-235 0 -381 180t-146 464v80q0 451 192.5 690t573.5 244h37zM678 900q-106 0 -196 -64t-125 -161v-76q0 -203 91 -326.5
t227 -123.5q140 0 220.5 103.5t80.5 270.5q0 169 -81.5 273t-216.5 104z" />
    <glyph glyph-name="seven" unicode="7" horiz-adv-x="1292" 
d="M1192 1518l-678 -1518h-218l675 1464h-885v171h1106v-117z" />
    <glyph glyph-name="eight" unicode="8" horiz-adv-x="1292" 
d="M1128 1208q0 -122 -65 -217.5t-175 -149.5q128 -55 203 -160.5t75 -239.5q0 -212 -143.5 -337.5t-376.5 -125.5q-236 0 -378 126t-142 337q0 133 72.5 239.5t200.5 161.5q-109 54 -172 149.5t-63 216.5q0 207 132.5 328.5t349.5 121.5q215 0 348.5 -121.5t133.5 -328.5z
M958 446q0 137 -87 223.5t-227 86.5q-141 0 -225.5 -85.5t-84.5 -224.5t82.5 -219t229.5 -80q146 0 229 80.5t83 218.5zM646 1487q-123 0 -198.5 -76t-75.5 -206q0 -125 74.5 -201.5t199.5 -76.5q124 0 199 76.5t75 201.5t-77.5 203.5t-196.5 78.5z" />
    <glyph glyph-name="nine" unicode="9" horiz-adv-x="1292" 
d="M932 719q-65 -78 -155.5 -125t-198.5 -47q-141 0 -246 69.5t-162.5 196t-57.5 279.5q0 164 62.5 295t177 201t267.5 70q242 0 382 -181.5t140 -494.5v-61q0 -477 -188.5 -697t-569.5 -225h-40v175h43q258 5 396 134.5t150 410.5zM612 719q105 0 193 64t128 158v83
q0 205 -88.5 333t-224.5 128q-137 0 -220 -105t-83 -277q0 -168 80 -276t215 -108z" />
    <glyph glyph-name="colon" unicode=":" horiz-adv-x="600" 
d="M201 219q35 37 99 37t101 -37q34 -35 34 -93q0 -54 -34 -88q-37 -36 -101 -36t-99 36q-33 33 -33 88q0 58 33 93zM202 898q35 37 99 37q65 0 101 -37q34 -35 34 -93q0 -55 -34 -88q-37 -36 -101 -36q-63 0 -99 36q-33 33 -33 88q0 58 33 93z" />
    <glyph glyph-name="semicolon" unicode=";" horiz-adv-x="486" 
d="M125 1101q0 53 32 89t96 36t97 -36t33 -89q0 -52 -33 -87t-97 -35t-96 35t-32 87zM164 -326l-118 81q106 147 110 303v188h203v-163q0 -113 -55.5 -226.5t-139.5 -182.5z" />
    <glyph glyph-name="less" unicode="&#x3c;" horiz-adv-x="1169" 
d="M296 723l704 -284v-220l-919 426v164l919 424v-220z" />
    <glyph glyph-name="equal" unicode="=" horiz-adv-x="1262" 
d="M1107 914h-936v181h936v-181zM1107 448h-936v180h936v-180z" />
    <glyph glyph-name="greater" unicode="&#x3e;" horiz-adv-x="1202" 
d="M893 730l-743 291v213l960 -424v-164l-960 -426v216z" />
    <glyph glyph-name="question" unicode="?" horiz-adv-x="1086" 
d="M401 460q2 134 30 211.5t115 171.5l147 152q94 107 94 229q0 118 -61.5 185t-179.5 67q-115 0 -184.5 -61t-69.5 -163h-208q2 182 129.5 294t332.5 112q212 0 330.5 -114t118.5 -313q0 -197 -182 -388l-122 -121q-82 -91 -82 -262h-208zM392 104q0 51 31 85t92 34
q60 0 91.5 -34t31.5 -84q0 -51 -31.5 -84t-91.5 -33q-61 0 -92 33t-31 83z" />
    <glyph glyph-name="at" unicode="@" horiz-adv-x="2065" 
d="M1952 564q-14 -272 -135 -429t-324 -157q-210 0 -270 188q-61 -95 -139 -141.5t-161 -46.5q-159 0 -241 130q-65 103 -65 270q0 43 4 90q17 186 85 331t175 228.5t225 83.5q91 0 163 -24.5t162 -94.5l-59 -623q-2 -29 -2 -55q0 -204 146 -204q127 0 205.5 126t85.5 328
q2 45 2 88q0 373 -174 590t-549 217q-226 0 -401 -112t-276 -323t-114 -487q-2 -39 -2 -76q0 -231 75.5 -422t241 -299t400.5 -108q101 0 202.5 24.5t168.5 63.5l42 -129q-70 -44 -185 -72t-233 -28q-281 0 -483 126.5t-302 364.5q-89 208 -89 479q0 37 2 76
q13 309 137.5 555.5t338 380.5t481.5 134q280 0 480 -125.5t298 -362.5q86 -209 86 -481q0 -36 -2 -74zM800 468q-4 -41 -4 -77q0 -104 39.5 -178.5t138.5 -74.5q67 0 129.5 57.5t102.5 163.5l1 10l52 565q-63 33 -135 33q-131 0 -217 -133.5t-107 -365.5z" />
    <glyph glyph-name="A" unicode="A" horiz-adv-x="1500" 
d="M1093 427h-685l-154 -427h-223l625 1635h189l625 -1635h-221zM473 604h556l-279 765z" />
    <glyph glyph-name="B" unicode="B" horiz-adv-x="1432" 
d="M190 0v1635h534q267 0 401 -110t134 -326q0 -114 -65 -202t-178 -137q133 -37 210 -141t77 -247q0 -220 -143 -346t-403 -126h-567zM405 765v-589h356q151 0 238 78t87 215q0 296 -321 296h-360zM405 938h326q142 0 226.5 70.5t84.5 192.5q0 134 -78.5 195.5t-239.5 61.5
h-319v-520z" />
    <glyph glyph-name="C" unicode="C" horiz-adv-x="1497" 
d="M1393 519q-31 -260 -192 -400.5t-428 -140.5q-290 0 -464.5 207.5t-174.5 555.5v157q0 228 81 401t230.5 266t346.5 93q260 0 417.5 -145.5t183.5 -402.5h-217q-28 195 -122 282.5t-262 87.5q-207 0 -324.5 -152.5t-117.5 -434.5v-159q0 -266 111.5 -423t311.5 -157
q179 0 275 81.5t128 283.5h217z" />
    <glyph glyph-name="D" unicode="D" horiz-adv-x="1508" 
d="M190 0v1635h461q214 0 378 -94.5t253 -268.5t90 -399v-105q0 -231 -89 -405t-254.5 -267.5t-386.5 -95.5h-452zM405 1458v-1282h227q250 0 388.5 155t138.5 442v95q0 279 -131 433t-371 157h-252z" />
    <glyph glyph-name="E" unicode="E" horiz-adv-x="1307" 
d="M1114 756h-709v-580h824v-176h-1039v1635h1027v-177h-812v-526h709v-176z" />
    <glyph glyph-name="F" unicode="F" horiz-adv-x="1271" 
d="M1092 722h-687v-722h-215v1635h1013v-177h-798v-560h687v-176z" />
    <glyph glyph-name="G" unicode="G" horiz-adv-x="1567" 
d="M1397 215q-83 -120 -232 -178.5t-346 -58.5q-200 0 -355 93.5t-240 266.5t-87 401v143q0 369 172.5 572.5t484.5 203.5q256 0 412 -131t191 -371h-216q-60 324 -386 324q-217 0 -328.5 -152t-112.5 -441v-133q0 -276 125.5 -438t340.5 -162q121 0 212 27t151 91v367h-379
v175h593v-599z" />
    <glyph glyph-name="H" unicode="H" horiz-adv-x="1640" 
d="M1446 0h-216v756h-825v-756h-215v1635h215v-703h825v703h216v-1635z" />
    <glyph glyph-name="I" unicode="I" horiz-adv-x="626" 
d="M421 0h-215v1635h215v-1635z" />
    <glyph glyph-name="J" unicode="J" horiz-adv-x="1269" 
d="M875 1635h217v-1158q0 -234 -141 -366.5t-376 -132.5q-244 0 -379.5 124.5t-135.5 348.5h215q0 -140 77 -218.5t223 -78.5q134 0 216.5 84t83.5 236v1161z" />
    <glyph glyph-name="K" unicode="K" horiz-adv-x="1442" 
d="M605 760l-200 -207v-553h-215v1635h215v-808l727 808h261l-644 -722l694 -913h-258z" />
    <glyph glyph-name="L" unicode="L" horiz-adv-x="1238" 
d="M407 176h774v-176h-991v1635h217v-1459z" />
    <glyph glyph-name="M" unicode="M" horiz-adv-x="2008" 
d="M468 1635l535 -1334l534 1334h280v-1635h-216v637l21 687l-537 -1324h-165l-536 1321l21 -684v-637h-215v1635h278z" />
    <glyph glyph-name="N" unicode="N" horiz-adv-x="1640" 
d="M1446 0h-216l-823 1260v-1260h-217v1635h217l825 -1266v1266h214v-1635z" />
    <glyph glyph-name="O" unicode="O" horiz-adv-x="1581" 
d="M1448 765q0 -241 -81 -420t-229.5 -273t-345.5 -94q-193 0 -342.5 94.5t-232 270.5t-84.5 407v118q0 236 81.5 417t231.5 277t344 96q196 0 346 -95t231 -275.5t81 -419.5v-103zM1233 870q0 291 -116.5 446.5t-326.5 155.5q-205 0 -322.5 -155.5t-120.5 -431.5v-120
q0 -282 118.5 -443t326.5 -161q209 0 323.5 152t117.5 436v121z" />
    <glyph glyph-name="P" unicode="P" horiz-adv-x="1451" 
d="M405 640v-640h-215v1635h603q268 0 420.5 -137t152.5 -363q0 -238 -149 -366.5t-426 -128.5h-386zM405 816h388q173 0 265 81.5t92 235.5q0 146 -92 233.5t-253 91.5h-400v-642z" />
    <glyph glyph-name="Q" unicode="Q" horiz-adv-x="1581" 
d="M1439 765q0 -237 -75.5 -408.5t-211.5 -267.5l292 -229l-147 -136l-345 274q-81 -20 -170 -20q-194 0 -343 94.5t-231.5 270.5t-85.5 407v118q0 236 82 417t232 277t343 96q198 0 348 -95.5t231 -275t81 -418.5v-104zM1223 870q0 289 -115 445.5t-329 156.5
q-203 0 -320.5 -155.5t-120.5 -431.5v-120q0 -281 117.5 -442.5t326.5 -161.5t323.5 152t117.5 436v121z" />
    <glyph glyph-name="R" unicode="R" horiz-adv-x="1416" 
d="M790 661h-385v-661h-216v1635h541q276 0 425 -125.5t149 -366.5q0 -152 -82.5 -265.5t-229.5 -169.5l384 -695v-13h-232zM405 838h332q160 0 255 83t95 222q0 152 -90.5 233t-260.5 82h-331v-620z" />
    <glyph glyph-name="S" unicode="S" horiz-adv-x="1365" 
d="M672 729q-278 80 -404 196t-126 287q0 193 154 319.5t401 126.5q169 0 301 -65.5t204.5 -180t72.5 -250.5h-217q0 149 -94.5 233.5t-266.5 84.5q-159 0 -248.5 -70t-89.5 -195q0 -100 85 -169t289 -126t319 -126.5t170.5 -161.5t55.5 -216q0 -199 -155 -318.5
t-414 -119.5q-169 0 -315 64.5t-225 176.5t-79 255h217q0 -148 109.5 -234t292.5 -86q170 0 261 69.5t91 189.5t-84 186t-305 130z" />
    <glyph glyph-name="T" unicode="T" horiz-adv-x="1372" 
d="M1320 1458h-526v-1458h-215v1458h-524v177h1265v-177z" />
    <glyph glyph-name="U" unicode="U" horiz-adv-x="1491" 
d="M1341 1635v-1112q-1 -231 -145.5 -378t-391.5 -165l-57 -2q-269 0 -428.5 144.5t-161.5 398.5v1114h214v-1107q0 -178 97.5 -276t278.5 -98q183 0 280 97.5t97 275.5v1108h217z" />
    <glyph glyph-name="V" unicode="V" horiz-adv-x="1463" 
d="M731 286l467 1349h236l-606 -1635h-191l-606 1635h235z" />
    <glyph glyph-name="W" unicode="W" horiz-adv-x="2041" 
d="M542 515l32 -215l46 194l323 1141h182l316 -1141l45 -198l35 221l253 1118h217l-396 -1635h-197l-337 1192l-26 124l-25 -124l-350 -1192h-196l-395 1635h215z" />
    <glyph glyph-name="X" unicode="X" horiz-adv-x="1442" 
d="M723 1008l392 627h254l-517 -811l529 -824h-256l-402 638l-404 -638h-255l530 824l-518 811h253z" />
    <glyph glyph-name="Y" unicode="Y" horiz-adv-x="1381" 
d="M688 814l427 821h245l-564 -1025v-610h-215v610l-564 1025h247z" />
    <glyph glyph-name="Z" unicode="Z" horiz-adv-x="1377" 
d="M352 176h935v-176h-1190v162l896 1296h-882v177h1140v-158z" />
    <glyph glyph-name="bracketleft" unicode="[" horiz-adv-x="610" 
d="M587 1698h-214v-1878h214v-170h-423v2219h423v-171z" />
    <glyph glyph-name="backslash" unicode="\" horiz-adv-x="943" 
d="M45 1635h198l682 -1775h-197z" />
    <glyph glyph-name="bracketright" unicode="]" horiz-adv-x="610" 
d="M10 1869h425v-2219h-425v170h217v1878h-217v171z" />
    <glyph glyph-name="asciicircum" unicode="^" horiz-adv-x="961" 
d="M478 1360l-213 -541h-193l336 816h142l335 -816h-192z" />
    <glyph glyph-name="underscore" unicode="_" horiz-adv-x="1038" 
d="M1033 -170h-1029v170h1029v-170z" />
    <glyph glyph-name="grave" unicode="`" horiz-adv-x="711" 
d="M532 1393h-178l-290 330h250z" />
    <glyph glyph-name="a" unicode="a" horiz-adv-x="1251" 
d="M907 0q-18 36 -29 128q-145 -150 -346 -150q-179 0 -294.5 101.5t-115.5 257.5q0 190 144.5 295t406.5 105h202v95q0 109 -65 173.5t-192 64.5q-112 0 -187 -56t-75 -136h-209q0 91 64.5 176t175.5 134.5t243 49.5q210 0 329 -105t124 -290v-559q0 -167 42 -266v-18h-218
zM563 158q97 0 185 50.5t127 131.5v250h-163q-382 0 -382 -224q0 -98 65 -153t168 -55z" />
    <glyph glyph-name="b" unicode="b" horiz-adv-x="1290" 
d="M1186 594q0 -278 -128 -447t-344 -169q-230 0 -356 162l-10 -140h-191v1725h208v-644q126 157 347 157t347.5 -167.5t126.5 -458.5v-18zM978 618q0 212 -82 327.5t-236 115.5q-205 0 -295 -191v-525q95 -191 298 -191q149 0 232 115.5t83 348.5z" />
    <glyph glyph-name="c" unicode="c" horiz-adv-x="1204" 
d="M645 147q111 0 194 67.5t92 168.5h197q-6 -104 -72.5 -198.5t-177 -150.5t-233.5 -56q-249 0 -395.5 165.5t-146.5 452.5v35q0 178 65.5 316t187 214.5t288.5 76.5q204 0 339.5 -122.5t144.5 -318.5h-197q-9 118 -89.5 194t-197.5 76q-159 0 -246 -114t-87 -330v-39
q0 -210 86.5 -323.5t247.5 -113.5z" />
    <glyph glyph-name="d" unicode="d" horiz-adv-x="1297" 
d="M107 618q0 279 132.5 449.5t346.5 170.5t338 -146v633h208v-1725h-191l-10 130q-125 -152 -347 -152q-211 0 -344 172.5t-133 451.5v16zM314 594q0 -207 85.5 -323.5t236.5 -116.5q197 0 288 177v558q-93 172 -286 172q-153 0 -238.5 -118t-85.5 -349z" />
    <glyph glyph-name="e" unicode="e" horiz-adv-x="1219" 
d="M661 -22q-247 0 -402 162t-155 434v38q0 181 69.5 323t193.5 222.5t269 80.5q237 0 368 -156.5t131 -446.5v-87h-823q5 -180 105.5 -290.5t255.5 -110.5q110 0 186 45t134 119l127 -99q-153 -234 -459 -234zM636 1067q-126 0 -211.5 -91.5t-105.5 -256.5h609v15
q-9 159 -85.5 246t-206.5 87z" />
    <glyph glyph-name="f" unicode="f" horiz-adv-x="798" 
d="M259 0v1055h-192v160h192v125q0 195 104.5 302t295.5 107q72 0 143 -20l-11 -168q-53 10 -113 10q-101 0 -156 -59t-55 -169v-128h260v-160h-260v-1055h-208z" />
    <glyph glyph-name="g" unicode="g" horiz-adv-x="1290" 
d="M108 618q0 284 131.5 452t347.5 168q223 0 347 -158l10 135h190v-1186q0 -236 -139.5 -371.5t-375.5 -135.5q-132 0 -257.5 56t-191.5 154l107 124q134 -165 327 -165q152 0 236.5 85.5t84.5 240.5v104q-124 -143 -340 -143q-213 0 -345 171.5t-132 468.5zM317 594
q0 -205 84 -322.5t236 -117.5q196 0 288 178v555q-95 174 -286 174q-152 0 -237 -118t-85 -349z" />
    <glyph glyph-name="h" unicode="h" horiz-adv-x="1267" 
d="M365 1068q138 170 359 170q386 0 389 -435v-803h-208v804q-1 131 -60 194t-184 63q-101 0 -177 -54t-119 -141v-866h-208v1725h208v-657z" />
    <glyph glyph-name="i" unicode="i" horiz-adv-x="558" 
d="M383 0h-208v1215h208v-1215zM158 1537q0 51 31 86t92 35q60 0 91.5 -35t31.5 -85q0 -51 -31.5 -84.5t-91.5 -33.5q-61 0 -92 33.5t-31 83.5z" />
    <glyph glyph-name="j" unicode="j" horiz-adv-x="549" 
d="M372 1215v-1355q0 -351 -318 -351q-69 0 -127 20v167q36 -9 94 -9q70 0 106.5 37.5t36.5 130.5v1360h208zM143 1537q0 50 30.5 85.5t90.5 35.5q61 0 92 -35t31 -85q0 -51 -31 -84.5t-92 -33.5t-91 33.5t-30 83.5z" />
    <glyph glyph-name="k" unicode="k" horiz-adv-x="1166" 
d="M496 563l-130 -136v-427h-208v1725h208v-1043l111 133l379 400h252l-472 -507l527 -708h-243z" />
    <glyph glyph-name="l" unicode="l" horiz-adv-x="558" 
d="M383 0h-208v1725h208v-1725z" />
    <glyph glyph-name="m" unicode="m" horiz-adv-x="2016" 
d="M353 1215l5 -135q134 158 361 158q255 0 347 -196q60 88 157.5 142t229.5 54q400 0 407 -424v-814h-208v802q0 130 -59.5 194.5t-199.5 64.5q-116 0 -192.5 -69t-88.5 -186v-806h-209v796q0 265 -259 265q-205 0 -280 -174v-887h-208v1215h197z" />
    <glyph glyph-name="n" unicode="n" horiz-adv-x="1269" 
d="M354 1215l6 -153q140 176 364 176q386 0 389 -435v-803h-208v804q-1 131 -60 194t-184 63q-101 0 -177 -54t-119 -141v-866h-208v1215h197z" />
    <glyph glyph-name="o" unicode="o" horiz-adv-x="1312" 
d="M102 619q0 178 70.5 321t195.5 220.5t286 77.5q248 0 401 -172t153 -457v-15q0 -177 -67.5 -318t-194 -219.5t-290.5 -78.5q-247 0 -400.5 171.5t-153.5 454.5v15zM311 594q0 -202 94 -324.5t251 -122.5q158 0 251.5 124t93.5 348q0 200 -95 324t-252 124
q-154 0 -248.5 -122.5t-94.5 -350.5z" />
    <glyph glyph-name="p" unicode="p" horiz-adv-x="1290" 
d="M1184 594q0 -277 -127 -446.5t-344 -169.5q-221 0 -348 140v-585h-208v1682h190l10 -135q127 158 353 158q219 0 346.5 -165.5t127.5 -459.5v-19zM976 618q0 205 -87.5 324t-240.5 119q-189 0 -283 -167v-581q93 -166 285 -166q150 0 238 118.5t88 352.5z" />
    <glyph glyph-name="q" unicode="q" horiz-adv-x="1307" 
d="M107 618q0 286 131 453t353 167q215 0 340 -145l9 122h191v-1682h-208v579q-126 -134 -335 -134q-220 0 -350.5 171t-130.5 454v15zM314 594q0 -209 88.5 -328t237.5 -119q185 0 283 164v595q-99 161 -281 161q-150 0 -239 -119.5t-89 -353.5z" />
    <glyph glyph-name="r" unicode="r" horiz-adv-x="778" 
d="M745 1029q-48 8 -103 8q-204 0 -277 -174v-863h-208v1215h202l4 -140q102 163 289 163q61 0 93 -16v-193z" />
    <glyph glyph-name="s" unicode="s" horiz-adv-x="1186" 
d="M865 322q0 85 -63.5 131.5t-221.5 80t-250.5 80.5t-137 112.5t-44.5 155.5q0 149 126.5 252.5t322.5 103.5q207 0 335.5 -107t128.5 -273h-209q0 85 -72 147t-183 62q-113 0 -177 -49.5t-64 -129.5q0 -75 59.5 -113t215 -73t252 -83t143.5 -116t47 -166
q0 -163 -130.5 -261t-338.5 -98q-146 0 -258 51.5t-175.5 144t-63.5 200.5h207q6 -104 84 -165.5t206 -61.5q118 0 189.5 48t71.5 127z" />
    <glyph glyph-name="t" unicode="t" horiz-adv-x="751" 
d="M439 1509v-294h227v-160h-227v-754q0 -73 30.5 -109.5t103.5 -36.5q36 0 99 13v-168q-82 -22 -160 -22q-139 0 -210 84t-71 239v754h-221v160h221v294h208z" />
    <glyph glyph-name="u" unicode="u" horiz-adv-x="1268" 
d="M907 120q-121 -142 -356 -142q-194 0 -295.5 112.5t-102.5 334.5v790h207v-785q0 -276 225 -276q238 0 317 177v884h208v-1215h-198z" />
    <glyph glyph-name="v" unicode="v" horiz-adv-x="1114" 
d="M558 282l301 933h212l-435 -1215h-159l-440 1215h212z" />
    <glyph glyph-name="w" unicode="w" horiz-adv-x="1728" 
d="M1233 286l234 929h207l-353 -1215h-169l-295 921l-288 -921h-168l-353 1215h207l239 -910l283 910h167z" />
    <glyph glyph-name="x" unicode="x" horiz-adv-x="1140" 
d="M565 772l269 443h243l-398 -601l410 -614h-240l-281 455l-280 -455h-242l410 614l-398 601h241z" />
    <glyph glyph-name="y" unicode="y" horiz-adv-x="1088" 
d="M555 304l283 911h222l-488 -1403q-114 -303 -361 -303l-39 4l-78 14v169l56 -5q106 0 165 43t97 156l46 123l-433 1202h227z" />
    <glyph glyph-name="z" unicode="z" horiz-adv-x="1140" 
d="M353 170h711v-170h-965v153l670 890h-660v172h921v-147z" />
    <glyph glyph-name="braceleft" unicode="{" horiz-adv-x="778" 
d="M710 -411q-199 56 -299.5 184.5t-100.5 339.5v224q0 273 -238 273v163q238 0 238 271v234q2 206 100.5 332t299.5 184l42 -130q-234 -75 -234 -392v-226q0 -255 -188 -355q188 -101 188 -359v-231q3 -309 234 -383z" />
    <glyph glyph-name="bar" unicode="|" horiz-adv-x="560" 
d="M364 -303h-167v1938h167v-1938z" />
    <glyph glyph-name="braceright" unicode="}" horiz-adv-x="778" 
d="M21 -282q228 73 236 372v247q0 259 203 354q-203 92 -203 353v228q0 317 -235 392l43 130q199 -57 299 -183t101 -334v-236q0 -268 238 -268v-163q-238 0 -238 -273v-227q0 -211 -101.5 -338t-298.5 -183z" />
    <glyph glyph-name="asciitilde" unicode="~" horiz-adv-x="1564" 
d="M1418 873q0 -178 -105 -300t-258 -122q-81 0 -153 30t-167 113t-136.5 103.5t-88.5 20.5q-88 0 -135 -60.5t-47 -165.5l-181 -2q0 179 103.5 295t259.5 116q85 0 163.5 -36t177.5 -126.5t171 -101.5l33 -2q85 0 138.5 65t53.5 171z" />
    <glyph glyph-name="exclamdown" unicode="&#xa1;" horiz-adv-x="560" 
d="M191 768h189l14 -1172h-218zM402 1119q0 -51 -31 -86t-91 -35q-61 0 -92.5 35t-31.5 86q0 50 31.5 83.5t92.5 33.5q60 0 91 -33.5t31 -83.5z" />
    <glyph glyph-name="cent" unicode="&#xa2;" horiz-adv-x="1258" 
d="M658 147q112 0 195.5 68t92.5 168h196q-7 -142 -118 -254.5t-273 -141.5v-262h-207v263q-201 38 -313.5 197.5t-112.5 406.5v39q0 238 113.5 398t312.5 197v254h207v-250q169 -26 276.5 -145t114.5 -288h-196q-9 118 -89.5 194t-198.5 76q-158 0 -245 -114t-87 -330v-39
q0 -210 87 -323.5t245 -113.5z" />
    <glyph glyph-name="sterling" unicode="&#xa3;" horiz-adv-x="1336" 
d="M504 699l9 -248q0 -172 -69 -275h823l-1 -176h-1159v176h86q45 10 73 84t30 181v9l-8 249h-186v176h180l-10 292q0 223 137.5 357t362.5 134q213 0 337.5 -119t124.5 -318h-214q0 120 -71.5 189.5t-196.5 69.5q-117 0 -190 -86.5t-73 -226.5l10 -292h358v-176h-353z" />
    <glyph glyph-name="currency" unicode="&#xa4;" horiz-adv-x="1640" 
d="M1239 126q-179 -148 -414 -148q-232 0 -411 146l-150 -153l-146 151l156 159q-117 175 -117 402q0 231 126 414l-165 170l146 153l165 -169q177 135 396 135q221 0 399 -136l167 171l149 -154l-170 -173q124 -183 124 -411q0 -220 -115 -399l161 -162l-149 -152zM349 683
q0 -138 64.5 -257t175 -187.5t237.5 -68.5q126 0 236 69t173.5 187.5t63.5 256.5q0 137 -63.5 255.5t-174 186.5t-236.5 68t-236.5 -67.5t-175 -186.5t-64.5 -256z" />
    <glyph glyph-name="yen" unicode="&#xa5;" horiz-adv-x="1393" 
d="M690 878l408 757h246l-469 -808h350v-141h-431v-185h431v-139h-431v-362h-217v362h-424v139h424v185h-424v141h351l-469 808h247z" />
    <glyph glyph-name="brokenbar" unicode="&#xa6;" horiz-adv-x="551" 
d="M165 -303v888h209v-888h-209zM374 784h-209v851h209v-851z" />
    <glyph glyph-name="section" unicode="&#xa7;" horiz-adv-x="1411" 
d="M1286 484q0 -212 -209 -308q77 -55 117.5 -131t40.5 -189q0 -188 -146 -300t-402 -112q-125 0 -238 31.5t-192 95.5q-156 127 -156 357l209 2q0 -146 101 -230.5t276 -84.5q153 0 246 65.5t93 173.5q0 100 -79.5 159t-314.5 129q-204 53 -312 115.5t-160 149.5t-52 212
q0 209 204 308q-74 55 -114 131t-40 189q0 186 150 298.5t400 112.5q260 0 406 -127t146 -357h-208q0 140 -94 227t-250 87q-160 0 -250.5 -64.5t-90.5 -174.5q0 -78 31.5 -123t107.5 -81.5t237 -81t256 -85t158.5 -95t96 -127t32.5 -172.5zM676 776q-101 27 -185 57
q-90 -21 -132 -77.5t-42 -134.5q0 -79 30 -123.5t105 -82t234.5 -83.5t208.5 -65q88 23 135 79.5t47 134.5q0 98 -78 159.5t-323 135.5z" />
    <glyph glyph-name="dieresis" unicode="&#xa8;" horiz-adv-x="961" 
d="M115 1540q0 50 30.5 84.5t91.5 34.5t92 -34.5t31 -84.5q0 -51 -31 -84.5t-92 -33.5t-91.5 33.5t-30.5 84.5zM597 1537q0 51 31 86t92 35t92 -35t31 -85q0 -51 -31 -84.5t-92 -33.5t-92 33.5t-31 83.5z" />
    <glyph glyph-name="copyright" unicode="&#xa9;" horiz-adv-x="1807" 
d="M1257 670q0 -171 -97.5 -261.5t-274.5 -90.5q-176 0 -282.5 118.5t-106.5 322.5v124q0 197 107.5 315.5t281.5 118.5q180 0 276.5 -92t96.5 -259h-164q0 111 -53.5 158.5t-155.5 47.5q-106 0 -166.5 -77.5t-60.5 -215.5v-127q0 -134 60.5 -211.5t166.5 -77.5
q103 0 155.5 47t52.5 160h164zM231 819q0 -193 90 -358t244.5 -258t334.5 -93q179 0 333 93t244 258t90 358q0 191 -89 353.5t-243.5 256.5t-334.5 94t-335 -92.5t-244.5 -256.5t-89.5 -355zM102 819q0 227 105 421t291 306t402 112q215 0 400.5 -112t290.5 -306t105 -421
q0 -222 -101 -415t-287 -310.5t-408 -117.5t-407.5 116.5t-288 309.5t-102.5 417z" />
    <glyph glyph-name="ordfeminine" unicode="&#xaa;" horiz-adv-x="1028" 
d="M694 792q-13 38 -20 81q-86 -97 -229 -97q-134 0 -207 69.5t-73 185.5q0 125 94 192t287 67h121v59q0 151 -139 151q-78 0 -122 -30t-44 -88l-181 14q0 116 96.5 189t250.5 73q149 0 235.5 -80.5t86.5 -230.5v-355q0 -109 29 -200h-185zM489 930q48 0 97.5 22.5
t80.5 52.5v160h-126q-93 -2 -143 -37t-50 -93q0 -105 141 -105z" />
    <glyph glyph-name="guillemotleft" unicode="&#xab;" horiz-adv-x="1117" 
d="M605 1025l-25 -34q-24 -34 -53.5 -93t-53 -140t-23.5 -173q0 -95 23.5 -174t53 -138t53.5 -93l25 -34l-149 -122q-4 3 -35 46.5t-67.5 118t-67 175t-30.5 221.5q0 120 30.5 221.5t67 176t67.5 118t35 46.5zM898 923l-19 -26q-18 -26 -41 -72.5t-41.5 -107.5t-18.5 -132
q0 -72 18.5 -133t40.5 -106.5t40 -71.5l19 -26l-147 -123q-3 2 -28.5 38t-55.5 97t-54.5 144t-24.5 181q0 97 24.5 181t54.5 145t55.5 96t28.5 39z" />
    <glyph glyph-name="logicalnot" unicode="&#xac;" horiz-adv-x="1274" 
d="M1076 421h-209v297h-724v180h933v-477z" />
    <glyph glyph-name="softhyphen" unicode="&#xad;" horiz-adv-x="635" 
d="M590 610h-548v169h548v-169z" />
    <glyph glyph-name="registered" unicode="&#xae;" horiz-adv-x="1808" 
d="M101 819q0 227 105 421t291 306t402 112q215 0 400.5 -112t290.5 -306t105 -421q0 -222 -101 -415t-287 -310.5t-409 -117.5q-221 0 -407 116.5t-288 309.5t-102 417zM230 819q0 -193 90 -358t244.5 -258t333.5 -93q181 0 336 95t243.5 258t88.5 356q0 192 -88.5 354
t-243.5 256t-336 94q-179 0 -334 -92.5t-244.5 -256.5t-89.5 -355zM733 734v-379h-158v953h310q172 0 267 -73.5t95 -213.5q0 -138 -144 -211q137 -56 138 -229v-69q0 -96 19 -139v-18h-163q-16 40 -16 144t-3 123q-18 108 -147 112h-198zM733 878h176q80 2 129.5 39.5
t49.5 97.5q0 82 -43.5 116.5t-156.5 34.5h-155v-288z" />
    <glyph glyph-name="macron" unicode="&#xaf;" horiz-adv-x="1053" 
d="M937 1475h-802v160h802v-160z" />
    <glyph glyph-name="degree" unicode="&#xb0;" horiz-adv-x="859" 
d="M146 1366q0 116 83.5 204t202.5 88q117 0 199.5 -87t82.5 -205q0 -119 -82.5 -203.5t-199.5 -84.5q-118 0 -202 84.5t-84 203.5zM432 1222q61 0 102.5 40t41.5 104q0 65 -41.5 107t-102.5 42t-103.5 -44.5t-42.5 -104.5q0 -61 42.5 -102.5t103.5 -41.5z" />
    <glyph glyph-name="plusminus" unicode="&#xb1;" horiz-adv-x="1229" 
d="M729 959h409v-169h-409v-465h-188v465h-432v169h432v464h188v-464zM1089 0h-937v171h937v-171z" />
    <glyph glyph-name="twosuperior" unicode="&#xb2;" horiz-adv-x="843" 
d="M767 749h-673v121l337 317q123 115 123 192q0 55 -36 89.5t-104 34.5q-84 0 -124 -43t-40 -107h-176q0 128 94 211.5t242 83.5t234.5 -71.5t86.5 -195.5q0 -116 -120 -237l-94 -88l-198 -163h448v-144z" />
    <glyph glyph-name="threesuperior" unicode="&#xb3;" horiz-adv-x="843" 
d="M298 1263h94q83 0 123.5 34.5t40.5 88.5q0 50 -35.5 83t-113.5 33q-64 0 -106.5 -29t-42.5 -75h-176q0 110 91.5 179t230.5 69q154 0 241.5 -68t87.5 -184q0 -62 -39 -113t-113 -79q167 -46 167 -207q0 -119 -95.5 -189t-248.5 -70q-148 0 -241 70.5t-93 190.5h177
q0 -50 44.5 -84t119.5 -34q79 0 120 34t41 91q0 127 -176 129h-98v130z" />
    <glyph glyph-name="acute" unicode="&#xb4;" horiz-adv-x="721" 
d="M355 1723h251l-301 -330h-167z" />
    <glyph glyph-name="mu" unicode="&#xb5;" horiz-adv-x="1303" 
d="M381 1215v-711q1 -183 59 -270.5t188 -87.5q223 0 293 171v898h209v-1215h-188l-10 129q-104 -151 -295 -151q-165 0 -256 82v-527h-208v1682h208z" />
    <glyph glyph-name="paragraph" unicode="&#xb6;" horiz-adv-x="1124" 
d="M725 0v584h-94q-258 0 -407 142.5t-149 383.5q0 239 149.5 382t407.5 143h302v-1635h-209z" />
    <glyph glyph-name="periodcentered" unicode="&#xb7;" horiz-adv-x="600" 
d="M165 819q0 54 32 89.5t96 35.5t97 -35.5t33 -89.5q0 -53 -33 -88.5t-97 -35.5t-96 35.5t-32 88.5z" />
    <glyph glyph-name="cedilla" unicode="&#xb8;" horiz-adv-x="569" 
d="M320 0l-13 -58q171 -31 171 -195q0 -109 -89.5 -172.5t-250.5 -63.5l-8 121q89 0 138 29t49 82q0 49 -36 72.5t-146 34.5l36 150h149z" />
    <glyph glyph-name="onesuperior" unicode="&#xb9;" horiz-adv-x="843" 
d="M556 757h-176v675l-243 -64v144l399 131h20v-886z" />
    <glyph glyph-name="ordmasculine" unicode="&#xba;" horiz-adv-x="1046" 
d="M137 1261q0 178 105.5 287.5t278.5 109.5q174 0 279.5 -108.5t105.5 -295.5v-83q0 -178 -105 -287t-278 -109t-279.5 109t-106.5 294v83zM320 1171q0 -112 54.5 -176t148.5 -64t147 64.5t53 178.5v87q0 111 -54.5 175t-147.5 64q-91 0 -145 -61.5t-56 -170.5v-97z" />
    <glyph glyph-name="guillemotright" unicode="&#xbb;" horiz-adv-x="1117" 
d="M550 1025l149 122q3 -3 34.5 -46.5t68 -118t66.5 -176t30 -221.5q0 -121 -30 -221.5t-66.5 -175t-68 -118t-34.5 -46.5l-149 122l24 34q25 34 54 93t52.5 138t23.5 174q0 92 -23.5 173t-52.5 140t-54 93zM256 923l149 123q4 -4 29.5 -39t55.5 -96t54.5 -145t24.5 -181
q0 -98 -24.5 -181t-54.5 -144t-55.5 -97t-29.5 -38l-147 123l19 26q19 26 40.5 71.5t40.5 106.5t19 133q0 71 -19 132t-41.5 107.5t-41.5 72.5z" />
    <glyph glyph-name="onequarter" unicode="&#xbc;" horiz-adv-x="1685" 
d="M514 746h-176v675l-243 -64v143l399 132h20v-886zM498 133l-117 74l798 1278l117 -74zM1480 336h120v-146h-120v-190h-176v190h-421l-7 114l423 582h181v-550zM1053 336h251v324l-19 -31z" />
    <glyph glyph-name="onehalf" unicode="&#xbd;" horiz-adv-x="1785" 
d="M448 133l-117 74l799 1278l117 -74zM509 746h-177v675l-242 -64v143l399 132h20v-886zM1663 0h-672v121l336 317q123 115 123 192q0 55 -36 89.5t-103 34.5q-85 0 -124.5 -43t-39.5 -107h-177q0 128 94 211t242 83t234.5 -71t86.5 -195q0 -117 -120 -237l-94 -88
l-198 -163h448v-144z" />
    <glyph glyph-name="threequarters" unicode="&#xbe;" horiz-adv-x="1789" 
d="M640 133l-117 74l799 1278l117 -74zM1583 336h121v-146h-121v-190h-176v190h-421l-7 114l424 582h180v-550zM1157 336h250v324l-19 -31zM353 1265h94q83 0 123.5 34t40.5 88q0 51 -35.5 83.5t-113.5 32.5q-64 0 -106.5 -29t-42.5 -75h-176q0 110 91.5 179.5t230.5 69.5
q154 0 241.5 -68t87.5 -185q0 -62 -39 -113t-113 -79q167 -46 167 -207q0 -119 -95.5 -189t-248.5 -70q-148 0 -241 70.5t-93 190.5h177q0 -50 44.5 -84t119.5 -34q79 0 120 34t41 91q0 127 -176 129h-98v131z" />
    <glyph glyph-name="questiondown" unicode="&#xbf;" horiz-adv-x="1088" 
d="M660 764q-1 -119 -24 -190.5t-77 -138t-157 -174.5t-116 -219l-2 -42q0 -122 65 -187t188 -65q112 0 182.5 63.5t70.5 166.5h207q-2 -181 -128.5 -295.5t-331.5 -114.5q-220 0 -340.5 112.5t-120.5 313.5q0 195 180 391l122 127q75 88 75 252h207zM669 1120
q0 -51 -30.5 -85.5t-91.5 -34.5t-92.5 34.5t-31.5 85.5q0 49 31.5 82.5t92.5 33.5t91.5 -33.5t30.5 -82.5z" />
    <glyph glyph-name="Agrave" unicode="&#xc0;" horiz-adv-x="1500" 
d="M1093 427h-685l-154 -427h-223l625 1635h189l625 -1635h-221zM473 604h556l-278 765zM874 1741h-179l-289 330h250z" />
    <glyph glyph-name="Aacute" unicode="&#xc1;" horiz-adv-x="1500" 
d="M1093 427h-685l-154 -427h-223l625 1635h189l625 -1635h-221zM473 604h556l-278 765zM857 2071h251l-301 -330h-167z" />
    <glyph glyph-name="Acircumflex" unicode="&#xc2;" horiz-adv-x="1500" 
d="M1093 427h-685l-154 -427h-223l625 1635h189l625 -1635h-221zM473 604h556l-278 765zM1095 1766v-12h-172l-168 192l-167 -192h-173v14l277 305h126z" />
    <glyph glyph-name="Atilde" unicode="&#xc3;" horiz-adv-x="1500" 
d="M1093 427h-685l-154 -427h-223l625 1635h189l625 -1635h-221zM473 604h556l-278 765zM1153 2038q0 -122 -69 -197t-172 -75q-46 0 -79.5 11t-88 46t-79 42t-55.5 7q-46 0 -78.5 -35.5t-32.5 -90.5l-139 8q0 121 68 199t172 78q39 0 70.5 -11t85.5 -43.5t82.5 -42.5
t63.5 -10q48 0 80 38t32 89z" />
    <glyph glyph-name="Adieresis" unicode="&#xc4;" horiz-adv-x="1500" 
d="M1093 427h-685l-154 -427h-223l625 1635h189l625 -1635h-221zM473 604h556l-278 765zM394 1888q0 50 31 84.5t91 34.5q61 0 92.5 -34.5t31.5 -84.5q0 -51 -31.5 -84.5t-92.5 -33.5q-60 0 -91 33.5t-31 84.5zM877 1886q0 50 31 85t91 35q61 0 92.5 -35t31.5 -85
q0 -51 -31.5 -84.5t-92.5 -33.5q-60 0 -91 33.5t-31 84.5z" />
    <glyph glyph-name="Aring" unicode="&#xc5;" horiz-adv-x="1500" 
d="M1093 427h-685l-154 -427h-223l625 1635h189l625 -1635h-221zM473 604h556l-278 765zM996 1941q0 -97 -69.5 -163t-171.5 -66q-104 0 -173 66.5t-69 163.5t69 165.5t173 68.5q103 0 172 -68.5t69 -166.5zM624 1941q0 -52 37.5 -90t93.5 -38q53 0 91 37t38 92t-37 93.5
t-92 38.5q-57 0 -94 -39t-37 -94z" />
    <glyph glyph-name="AE" unicode="&#xc6;" horiz-adv-x="2150" 
d="M2110 0h-991l-17 396h-634l-230 -396h-254l989 1635h1068v-171h-776l22 -529h663v-169h-656l24 -596h792v-170zM582 592h512l-35 823z" />
    <glyph glyph-name="Ccedilla" unicode="&#xc7;" horiz-adv-x="1497" 
d="M1393 519q-31 -260 -192 -400.5t-428 -140.5q-290 0 -464.5 207.5t-174.5 555.5v157q0 228 81.5 401t230.5 266t345 93q262 0 418.5 -146t183.5 -403h-217q-28 196 -122 283.5t-263 87.5q-206 0 -323.5 -152.5t-117.5 -434.5v-158q0 -267 111.5 -424t311.5 -157
q179 0 275.5 81.5t127.5 283.5h217zM844 -10l-14 -59q172 -30 172 -193q0 -110 -90 -173.5t-250 -63.5l-9 121q89 0 138.5 29t49.5 81q0 51 -36.5 74.5t-146.5 32.5l36 151h150z" />
    <glyph glyph-name="Egrave" unicode="&#xc8;" horiz-adv-x="1307" 
d="M1114 756h-708v-579h822v-177h-1038v1635h1027v-178h-811v-524h708v-177zM814 1754h-178l-290 331h250z" />
    <glyph glyph-name="Eacute" unicode="&#xc9;" horiz-adv-x="1307" 
d="M1114 756h-708v-579h822v-177h-1038v1635h1027v-178h-811v-524h708v-177zM798 2085h251l-301 -331h-168z" />
    <glyph glyph-name="Ecircumflex" unicode="&#xca;" horiz-adv-x="1307" 
d="M1114 756h-708v-579h822v-177h-1038v1635h1027v-178h-811v-524h708v-177zM1035 1779v-11h-171l-169 190l-167 -190h-171v13l276 306h125z" />
    <glyph glyph-name="Edieresis" unicode="&#xcb;" horiz-adv-x="1307" 
d="M1114 756h-708v-579h822v-177h-1038v1635h1027v-178h-811v-524h708v-177zM335 1902q0 50 30.5 84.5t91.5 34.5t92 -34.5t31 -84.5q0 -52 -31 -85t-92 -33t-91.5 33t-30.5 85zM818 1900q0 50 30.5 84.5t91.5 34.5t92 -34.5t31 -84.5q0 -52 -31 -85.5t-92 -33.5t-91.5 33.5
t-30.5 85.5z" />
    <glyph glyph-name="Igrave" unicode="&#xcc;" horiz-adv-x="625" 
d="M421 0h-215v1635h215v-1635zM433 1754h-179l-290 331h250z" />
    <glyph glyph-name="Iacute" unicode="&#xcd;" horiz-adv-x="625" 
d="M421 0h-215v1635h215v-1635zM414 2085h252l-301 -331h-167z" />
    <glyph glyph-name="Icircumflex" unicode="&#xce;" horiz-adv-x="625" 
d="M421 0h-215v1635h215v-1635zM653 1779v-11h-171l-168 190l-168 -190h-172v13l277 306h125z" />
    <glyph glyph-name="Idieresis" unicode="&#xcf;" horiz-adv-x="625" 
d="M421 0h-215v1635h215v-1635zM-47 1902q0 50 31 84.5t91 34.5q61 0 92.5 -34.5t31.5 -84.5q0 -52 -31.5 -85t-92.5 -33q-60 0 -91 33t-31 85zM436 1900q0 50 31 84.5t91 34.5q61 0 92.5 -34.5t31.5 -84.5q0 -52 -31.5 -85.5t-92.5 -33.5q-60 0 -91 33.5t-31 85.5z" />
    <glyph glyph-name="Eth" unicode="&#xd0;" horiz-adv-x="1542" 
d="M224 0v748h-182v170h182v717h461q213 0 377 -94t253.5 -268t90.5 -400v-105q0 -232 -89.5 -406t-255 -267t-385.5 -95h-452zM756 748h-317v-571h226q249 0 388 153.5t140 432.5v105q0 279 -130.5 433t-371.5 156h-252v-539h317v-170z" />
    <glyph glyph-name="Ntilde" unicode="&#xd1;" horiz-adv-x="1639" 
d="M1447 0h-218l-822 1260v-1260h-217v1635h217l825 -1266v1266h215v-1635zM1214 2038q0 -122 -69 -197t-173 -75q-46 0 -79.5 11t-87.5 46t-78.5 42t-56.5 7q-46 0 -78.5 -35.5t-32.5 -90.5l-139 8q0 121 68 199t173 78q38 0 69.5 -11t86 -43.5t82.5 -42.5t64 -10
q48 0 80 38t32 89z" />
    <glyph glyph-name="Ograve" unicode="&#xd2;" horiz-adv-x="1582" 
d="M1448 765q0 -240 -81 -419.5t-229.5 -273.5t-346.5 -94q-192 0 -341.5 94.5t-232 270.5t-84.5 408v117q0 236 82 417t231.5 277t342.5 96q197 0 347 -95t231 -275.5t81 -419.5v-103zM1233 871q0 291 -117 446t-327 155q-204 0 -321.5 -155t-120.5 -433v-119
q0 -282 118.5 -443t325.5 -161q210 0 324 152t118 437v121zM912 1743h-179l-290 330h251z" />
    <glyph glyph-name="Oacute" unicode="&#xd3;" horiz-adv-x="1582" 
d="M1448 765q0 -240 -81 -419.5t-229.5 -273.5t-346.5 -94q-192 0 -341.5 94.5t-232 270.5t-84.5 408v117q0 236 82 417t231.5 277t342.5 96q197 0 347 -95t231 -275.5t81 -419.5v-103zM1233 871q0 291 -117 446t-327 155q-204 0 -321.5 -155t-120.5 -433v-119
q0 -282 118.5 -443t325.5 -161q210 0 324 152t118 437v121zM895 2073h252l-301 -330h-167z" />
    <glyph glyph-name="Ocircumflex" unicode="&#xd4;" horiz-adv-x="1582" 
d="M1448 765q0 -240 -81 -419.5t-229.5 -273.5t-346.5 -94q-192 0 -341.5 94.5t-232 270.5t-84.5 408v117q0 236 82 417t231.5 277t342.5 96q197 0 347 -95t231 -275.5t81 -419.5v-103zM1233 871q0 291 -117 446t-327 155q-204 0 -321.5 -155t-120.5 -433v-119
q0 -282 118.5 -443t325.5 -161q210 0 324 152t118 437v121zM1133 1768v-12h-171l-170 192l-167 -192h-171v14l276 305h126z" />
    <glyph glyph-name="Otilde" unicode="&#xd5;" horiz-adv-x="1582" 
d="M1448 765q0 -240 -81 -419.5t-229.5 -273.5t-346.5 -94q-192 0 -341.5 94.5t-232 270.5t-84.5 408v117q0 236 82 417t231.5 277t342.5 96q197 0 347 -95t231 -275.5t81 -419.5v-103zM1233 871q0 291 -117 446t-327 155q-204 0 -321.5 -155t-120.5 -433v-119
q0 -282 118.5 -443t325.5 -161q210 0 324 152t118 437v121zM1192 2040q0 -122 -69 -197t-173 -75q-46 0 -80 11t-88 46t-78 42.5t-56 7.5q-46 0 -79 -36t-33 -90l-139 7q0 121 68 199t173 78q39 0 70.5 -11t85.5 -43t82.5 -42.5t63.5 -10.5q48 0 80.5 38t32.5 89z" />
    <glyph glyph-name="Odieresis" unicode="&#xd6;" horiz-adv-x="1582" 
d="M1448 765q0 -240 -81 -419.5t-229.5 -273.5t-346.5 -94q-192 0 -341.5 94.5t-232 270.5t-84.5 408v117q0 236 82 417t231.5 277t342.5 96q197 0 347 -95t231 -275.5t81 -419.5v-103zM1233 871q0 291 -117 446t-327 155q-204 0 -321.5 -155t-120.5 -433v-119
q0 -282 118.5 -443t325.5 -161q210 0 324 152t118 437v121zM433 1890q0 50 31 84.5t91 34.5q61 0 92.5 -34.5t31.5 -84.5t-31.5 -84t-92.5 -34q-60 0 -91 34t-31 84zM915 1888q0 50 31.5 85t91.5 35q61 0 92.5 -35t31.5 -85q0 -51 -31.5 -84.5t-92.5 -33.5q-60 0 -91.5 33.5
t-31.5 84.5z" />
    <glyph glyph-name="multiply" unicode="&#xd7;" horiz-adv-x="1226" 
d="M100 369l371 378l-369 376l134 138l369 -376l370 376l133 -138l-368 -376l371 -378l-134 -138l-372 379l-371 -379z" />
    <glyph glyph-name="Oslash" unicode="&#xd8;" horiz-adv-x="1581" 
d="M1448 765q0 -241 -81 -420t-229.5 -273t-345.5 -94q-192 0 -339 92l-109 -174h-160l162 259q-213 216 -213 620v93q0 236 81.5 417t231.5 277t344 96q240 0 406 -141l116 186h158l-178 -287q153 -210 156 -540v-111zM347 765q0 -274 110 -433l633 1016q-114 124 -300 124
q-205 0 -322.5 -155.5t-120.5 -431.5v-120zM1233 870q0 205 -63 352l-616 -990q102 -71 238 -71q209 0 323.5 152t117.5 436v121z" />
    <glyph glyph-name="Ugrave" unicode="&#xd9;" horiz-adv-x="1492" 
d="M1341 1635v-1111q-1 -232 -145.5 -379t-391.5 -165l-58 -2q-267 0 -426.5 145t-162.5 398v1114h213v-1107q0 -178 98 -276t278 -98q183 0 280.5 97.5t97.5 275.5v1108h217zM868 1741h-178l-291 330h251z" />
    <glyph glyph-name="Uacute" unicode="&#xda;" horiz-adv-x="1492" 
d="M1341 1635v-1111q-1 -232 -145.5 -379t-391.5 -165l-58 -2q-267 0 -426.5 145t-162.5 398v1114h213v-1107q0 -178 98 -276t278 -98q183 0 280.5 97.5t97.5 275.5v1108h217zM851 2071h252l-301 -330h-167z" />
    <glyph glyph-name="Ucircumflex" unicode="&#xdb;" horiz-adv-x="1492" 
d="M1341 1635v-1111q-1 -232 -145.5 -379t-391.5 -165l-58 -2q-267 0 -426.5 145t-162.5 398v1114h213v-1107q0 -178 98 -276t278 -98q183 0 280.5 97.5t97.5 275.5v1108h217zM1089 1766v-12h-171l-168 192l-169 -192h-171v14l276 305h126z" />
    <glyph glyph-name="Udieresis" unicode="&#xdc;" horiz-adv-x="1492" 
d="M1341 1635v-1111q-1 -232 -145.5 -379t-391.5 -165l-58 -2q-267 0 -426.5 145t-162.5 398v1114h213v-1107q0 -178 98 -276t278 -98q183 0 280.5 97.5t97.5 275.5v1108h217zM389 1888q0 50 31 84.5t91 34.5q61 0 92.5 -34.5t31.5 -84.5q0 -51 -31.5 -84.5t-92.5 -33.5
q-60 0 -91 33.5t-31 84.5zM872 1886q0 50 31 85t91 35q61 0 92.5 -35t31.5 -85q0 -51 -31.5 -84.5t-92.5 -33.5q-60 0 -91 33.5t-31 84.5z" />
    <glyph glyph-name="Yacute" unicode="&#xdd;" horiz-adv-x="1381" 
d="M688 814l428 821h244l-563 -1025v-610h-217v610l-563 1025h246zM796 2071h251l-302 -330h-167z" />
    <glyph glyph-name="Thorn" unicode="&#xde;" horiz-adv-x="1359" 
d="M395 1635v-329h314q165 0 288.5 -59t190 -168t66.5 -250q0 -218 -148 -347.5t-403 -129.5h-308v-352h-209v1635h209zM395 1135v-613h311q160 0 250 85t90 220q0 138 -90 222.5t-243 85.5h-318z" />
    <glyph glyph-name="germandbls" unicode="&#xdf;" horiz-adv-x="1368" 
d="M364 0h-208v1248q0 233 116.5 365t324.5 132q203 0 313.5 -100.5t110.5 -278.5q0 -141 -72 -255t-72 -191q0 -57 42 -110.5t147.5 -134.5t154 -157.5t48.5 -161.5q0 -179 -114 -278.5t-318 -99.5q-91 0 -193 24.5t-144 55.5l48 174q55 -35 131 -60t135 -25
q120 0 183.5 53t63.5 145q0 58 -41.5 112t-147.5 136.5t-155 160t-49 168.5q0 100 78 216t78 211q0 105 -58 165.5t-157 60.5q-245 0 -245 -330v-1245z" />
    <glyph glyph-name="agrave" unicode="&#xe0;" horiz-adv-x="1251" 
d="M907 0q-17 36 -29 128q-145 -150 -346 -150q-180 0 -295 101.5t-115 257.5q0 190 144.5 295t405.5 105h203v95q0 109 -65.5 174t-191.5 65q-112 0 -186.5 -56.5t-74.5 -136.5h-210q0 91 64.5 176t175.5 134.5t243 49.5q211 0 329.5 -105t123.5 -289v-560q0 -167 42 -266
v-18h-218zM562 158q99 0 186 50.5t127 131.5v250h-163q-382 0 -382 -224q0 -97 65 -152.5t167 -55.5zM772 1393h-179l-290 330h251z" />
    <glyph glyph-name="aacute" unicode="&#xe1;" horiz-adv-x="1251" 
d="M907 0q-17 36 -29 128q-145 -150 -346 -150q-180 0 -295 101.5t-115 257.5q0 190 144.5 295t405.5 105h203v95q0 109 -65.5 174t-191.5 65q-112 0 -186.5 -56.5t-74.5 -136.5h-210q0 91 64.5 176t175.5 134.5t243 49.5q211 0 329.5 -105t123.5 -289v-560q0 -167 42 -266
v-18h-218zM562 158q99 0 186 50.5t127 131.5v250h-163q-382 0 -382 -224q0 -97 65 -152.5t167 -55.5zM755 1723h252l-301 -330h-168z" />
    <glyph glyph-name="acircumflex" unicode="&#xe2;" horiz-adv-x="1251" 
d="M907 0q-17 36 -29 128q-145 -150 -346 -150q-180 0 -295 101.5t-115 257.5q0 190 144.5 295t405.5 105h203v95q0 109 -65.5 174t-191.5 65q-112 0 -186.5 -56.5t-74.5 -136.5h-210q0 91 64.5 176t175.5 134.5t243 49.5q211 0 329.5 -105t123.5 -289v-560q0 -167 42 -266
v-18h-218zM562 158q99 0 186 50.5t127 131.5v250h-163q-382 0 -382 -224q0 -97 65 -152.5t167 -55.5zM993 1418v-12h-172l-169 191l-167 -191h-171v14l276 305h125z" />
    <glyph glyph-name="atilde" unicode="&#xe3;" horiz-adv-x="1251" 
d="M907 0q-17 36 -29 128q-145 -150 -346 -150q-180 0 -295 101.5t-115 257.5q0 190 144.5 295t405.5 105h203v95q0 109 -65.5 174t-191.5 65q-112 0 -186.5 -56.5t-74.5 -136.5h-210q0 91 64.5 176t175.5 134.5t243 49.5q211 0 329.5 -105t123.5 -289v-560q0 -167 42 -266
v-18h-218zM562 158q99 0 186 50.5t127 131.5v250h-163q-382 0 -382 -224q0 -97 65 -152.5t167 -55.5zM1051 1689q0 -121 -69 -196t-172 -75q-47 0 -80.5 11t-87.5 46t-78.5 42t-55.5 7q-46 0 -79 -35.5t-33 -90.5l-139 8q0 120 68 198.5t173 78.5q38 0 70 -11t86 -44
t82.5 -42.5t63.5 -9.5q48 0 80 38t32 89z" />
    <glyph glyph-name="adieresis" unicode="&#xe4;" horiz-adv-x="1251" 
d="M907 0q-17 36 -29 128q-145 -150 -346 -150q-180 0 -295 101.5t-115 257.5q0 190 144.5 295t405.5 105h203v95q0 109 -65.5 174t-191.5 65q-112 0 -186.5 -56.5t-74.5 -136.5h-210q0 91 64.5 176t175.5 134.5t243 49.5q211 0 329.5 -105t123.5 -289v-560q0 -167 42 -266
v-18h-218zM562 158q99 0 186 50.5t127 131.5v250h-163q-382 0 -382 -224q0 -97 65 -152.5t167 -55.5zM292 1540q0 50 30.5 84.5t91.5 34.5t92.5 -34.5t31.5 -84.5q0 -51 -31.5 -84.5t-92.5 -33.5t-91.5 33.5t-30.5 84.5zM775 1538q0 50 30.5 85t91.5 35t92 -35t31 -85
q0 -51 -31 -84.5t-92 -33.5t-91.5 33.5t-30.5 84.5z" />
    <glyph glyph-name="aring" unicode="&#xe5;" horiz-adv-x="1251" 
d="M907 0q-17 36 -29 128q-145 -150 -346 -150q-180 0 -295 101.5t-115 257.5q0 190 144.5 295t405.5 105h203v95q0 109 -65.5 174t-191.5 65q-112 0 -186.5 -56.5t-74.5 -136.5h-210q0 91 64.5 176t175.5 134.5t243 49.5q211 0 329.5 -105t123.5 -289v-560q0 -167 42 -266
v-18h-218zM562 158q99 0 186 50.5t127 131.5v250h-163q-382 0 -382 -224q0 -97 65 -152.5t167 -55.5zM894 1593q0 -97 -69.5 -163t-172.5 -66t-172 66.5t-69 163.5t69 165t172 68q104 0 173 -68t69 -166zM523 1593q0 -52 37 -90t92 -38t93 37t38 92t-37.5 93.5t-93.5 38.5
t-92.5 -39t-36.5 -94z" />
    <glyph glyph-name="ae" unicode="&#xe6;" horiz-adv-x="1942" 
d="M1417 -22q-293 0 -446 202q-73 -97 -199.5 -149.5t-285.5 -52.5q-187 0 -292.5 97t-105.5 266q0 177 127.5 274.5t375.5 97.5h250v96q0 120 -61.5 189t-178.5 69q-118 0 -196.5 -62t-78.5 -153l-207 22q0 160 136 262t346 102q129 0 228 -47t155 -140q71 89 168.5 138
t215.5 49q236 0 366 -144.5t130 -406.5v-129h-817q8 -198 105.5 -305t264.5 -107q166 0 302 85l53 35l72 -153q-177 -135 -427 -135zM527 146q81 0 169.5 41.5t144.5 102.5v266h-256q-131 -2 -210 -64t-79 -155q0 -87 60 -139t171 -52zM1368 1067q-129 0 -213 -96t-103 -252
h604v35q0 148 -75 230.5t-213 82.5z" />
    <glyph glyph-name="ccedilla" unicode="&#xe7;" horiz-adv-x="1204" 
d="M645 147q111 0 194 67.5t93 168.5h196q-6 -105 -72.5 -199t-177 -150t-233.5 -56q-249 0 -395 165t-146 453v35q0 177 64.5 315.5t187 215t288.5 76.5q204 0 339.5 -122.5t144.5 -317.5h-196q-10 117 -90.5 193t-197.5 76q-159 0 -245.5 -114.5t-86.5 -329.5v-39
q0 -210 86 -323.5t247 -113.5zM679 -10l-14 -59q171 -30 171 -193q0 -110 -89.5 -173.5t-249.5 -63.5l-9 121q89 0 138 29t49 81q0 51 -36 74.5t-146 32.5l36 151h150z" />
    <glyph glyph-name="egrave" unicode="&#xe8;" horiz-adv-x="1219" 
d="M662 -22q-248 0 -402.5 162t-154.5 434v38q0 180 69 322.5t192.5 223t269.5 80.5q237 0 368 -156.5t131 -446.5v-87h-822q4 -180 104.5 -290.5t254.5 -110.5q111 0 187.5 45t133.5 120l127 -100q-153 -234 -458 -234zM636 1067q-126 0 -211.5 -92t-105.5 -256h608v16
q-8 158 -84.5 245t-206.5 87zM754 1393h-179l-290 330h250z" />
    <glyph glyph-name="eacute" unicode="&#xe9;" horiz-adv-x="1219" 
d="M662 -22q-248 0 -402.5 162t-154.5 434v38q0 180 69 322.5t192.5 223t269.5 80.5q237 0 368 -156.5t131 -446.5v-87h-822q4 -180 104.5 -290.5t254.5 -110.5q111 0 187.5 45t133.5 120l127 -100q-153 -234 -458 -234zM636 1067q-126 0 -211.5 -92t-105.5 -256h608v16
q-8 158 -84.5 245t-206.5 87zM737 1723h251l-301 -330h-167z" />
    <glyph glyph-name="ecircumflex" unicode="&#xea;" horiz-adv-x="1219" 
d="M662 -22q-248 0 -402.5 162t-154.5 434v38q0 180 69 322.5t192.5 223t269.5 80.5q237 0 368 -156.5t131 -446.5v-87h-822q4 -180 104.5 -290.5t254.5 -110.5q111 0 187.5 45t133.5 120l127 -100q-153 -234 -458 -234zM636 1067q-126 0 -211.5 -92t-105.5 -256h608v16
q-8 158 -84.5 245t-206.5 87zM974 1418v-12h-171l-168 191l-168 -191h-171v14l276 305h125z" />
    <glyph glyph-name="edieresis" unicode="&#xeb;" horiz-adv-x="1219" 
d="M662 -22q-248 0 -402.5 162t-154.5 434v38q0 180 69 322.5t192.5 223t269.5 80.5q237 0 368 -156.5t131 -446.5v-87h-822q4 -180 104.5 -290.5t254.5 -110.5q111 0 187.5 45t133.5 120l127 -100q-153 -234 -458 -234zM636 1067q-126 0 -211.5 -92t-105.5 -256h608v16
q-8 158 -84.5 245t-206.5 87zM274 1540q0 50 31 84.5t91 34.5q61 0 92.5 -34.5t31.5 -84.5q0 -51 -31.5 -84.5t-92.5 -33.5q-60 0 -91 33.5t-31 84.5zM757 1538q0 50 31 85t91 35q61 0 92.5 -35t31.5 -85q0 -51 -31.5 -84.5t-92.5 -33.5q-60 0 -91 33.5t-31 84.5z" />
    <glyph glyph-name="igrave" unicode="&#xec;" horiz-adv-x="569" 
d="M383 0h-208v1215h208v-1215zM404 1392h-179l-290 330h250z" />
    <glyph glyph-name="iacute" unicode="&#xed;" horiz-adv-x="569" 
d="M383 0h-208v1215h208v-1215zM385 1722h252l-301 -330h-168z" />
    <glyph glyph-name="icircumflex" unicode="&#xee;" horiz-adv-x="569" 
d="M383 0h-208v1215h208v-1215zM624 1417v-12h-171l-169 190l-167 -190h-172v14l277 305h125z" />
    <glyph glyph-name="idieresis" unicode="&#xef;" horiz-adv-x="569" 
d="M383 0h-208v1215h208v-1215zM-76 1539q0 50 30.5 84.5t91.5 34.5t92 -34.5t31 -84.5q0 -51 -31 -84.5t-92 -33.5t-91.5 33.5t-30.5 84.5zM407 1537q0 50 30.5 84.5t91.5 34.5t92 -34.5t31 -84.5q0 -51 -31 -84.5t-92 -33.5t-91.5 33.5t-30.5 84.5z" />
    <glyph glyph-name="eth" unicode="&#xf0;" horiz-adv-x="1348" 
d="M921 1461q280 -296 280 -756v-104q0 -178 -66 -320t-187 -222.5t-272 -80.5q-152 0 -275.5 72t-191 198t-67.5 276q0 166 62.5 296.5t179 203.5t261.5 73q183 0 319 -128q-54 219 -213 378l-245 -167l-81 112l215 147q-148 102 -354 157l64 178q269 -60 465 -216l213 145
l82 -113zM993 713l-2 63q-38 69 -116 110t-181 41q-163 0 -254 -107.5t-91 -295.5q0 -157 94 -267t238 -110q140 0 226 127t86 334v105z" />
    <glyph glyph-name="ntilde" unicode="&#xf1;" horiz-adv-x="1269" 
d="M353 1215l8 -153q139 176 364 176q384 0 388 -435v-803h-208v804q-1 132 -60 194.5t-183 62.5q-102 0 -178 -54t-119 -141v-866h-208v1215h196zM1041 1689q0 -121 -69 -196t-172 -75q-46 0 -80 11t-88.5 46t-78.5 42t-55 7q-46 0 -78.5 -35.5t-32.5 -90.5l-140 8
q0 120 68 198.5t172 78.5q40 0 71.5 -11t85 -44t82.5 -42.5t63 -9.5q48 0 80.5 38t32.5 89z" />
    <glyph glyph-name="ograve" unicode="&#xf2;" horiz-adv-x="1312" 
d="M102 619q0 179 70.5 321.5t195.5 220t285 77.5q249 0 402.5 -172t153.5 -458v-14q0 -177 -68 -318t-194.5 -219.5t-290.5 -78.5q-247 0 -400.5 171.5t-153.5 454.5v15zM312 594q0 -202 93.5 -324.5t250.5 -122.5q158 0 251.5 124t93.5 348q0 200 -95 324t-253 124
q-153 0 -247 -122.5t-94 -350.5zM765 1393h-178l-290 330h250z" />
    <glyph glyph-name="oacute" unicode="&#xf3;" horiz-adv-x="1312" 
d="M102 619q0 179 70.5 321.5t195.5 220t285 77.5q249 0 402.5 -172t153.5 -458v-14q0 -177 -68 -318t-194.5 -219.5t-290.5 -78.5q-247 0 -400.5 171.5t-153.5 454.5v15zM312 594q0 -202 93.5 -324.5t250.5 -122.5q158 0 251.5 124t93.5 348q0 200 -95 324t-253 124
q-153 0 -247 -122.5t-94 -350.5zM748 1723h251l-301 -330h-167z" />
    </font>
</defs>
</svg>
